  0
SECTION
  2
HEADER
  9
$ACADVER
  1
AC1015
  9
$ACADMAINTVER
 70
     6
  9
$DWGCODEPAGE
  3
ANSI_1252
  9
$INSBASE
 10
0.0
 20
0.0
 30
0.0
  9
$EXTMIN
 10
0.0
 20
0.0
 30
0.0
  9
$EXTMAX
 10
210.0000000000001
 20
297.0000000000001
 30
0.0
  9
$LIMMIN
 10
0.0
 20
0.0
  9
$LIMMAX
 10
12.0
 20
9.0
  9
$ORTHOMODE
 70
     0
  9
$REGENMODE
 70
     1
  9
$FILLMODE
 70
     1
  9
$QTEXTMODE
 70
     0
  9
$MIRRTEXT
 70
     1
  9
$LTSCALE
 40
1.0
  9
$ATTMODE
 70
     1
  9
$TEXTSIZE
 40
0.2
  9
$TRACEWID
 40
0.05
  9
$TEXTSTYLE
  7
Standard
  9
$CLAYER
  8
0
  9
$CELTYPE
  6
ByLayer
  9
$CECOLOR
 62
   256
  9
$CELTSCALE
 40
1.0
  9
$DISPSILH
 70
     0
  9
$DIMSCALE
 40
1.0
  9
$DIMASZ
 40
0.18
  9
$DIMEXO
 40
0.0625
  9
$DIMDLI
 40
0.38
  9
$DIMRND
 40
0.0
  9
$DIMDLE
 40
0.0
  9
$DIMEXE
 40
0.18
  9
$DIMTP
 40
0.0
  9
$DIMTM
 40
0.0
  9
$DIMTXT
 40
0.18
  9
$DIMCEN
 40
0.09
  9
$DIMTSZ
 40
0.0
  9
$DIMTOL
 70
     0
  9
$DIMLIM
 70
     0
  9
$DIMTIH
 70
     1
  9
$DIMTOH
 70
     1
  9
$DIMSE1
 70
     0
  9
$DIMSE2
 70
     0
  9
$DIMTAD
 70
     0
  9
$DIMZIN
 70
     0
  9
$DIMBLK
  1

  9
$DIMASO
 70
     1
  9
$DIMSHO
 70
     1
  9
$DIMPOST
  1

  9
$DIMAPOST
  1

  9
$DIMALT
 70
     0
  9
$DIMALTD
 70
     2
  9
$DIMALTF
 40
25.4
  9
$DIMLFAC
 40
1.0
  9
$DIMTOFL
 70
     0
  9
$DIMTVP
 40
0.0
  9
$DIMTIX
 70
     0
  9
$DIMSOXD
 70
     0
  9
$DIMSAH
 70
     0
  9
$DIMBLK1
  1

  9
$DIMBLK2
  1

  9
$DIMSTYLE
  2
Standard
  9
$DIMCLRD
 70
     0
  9
$DIMCLRE
 70
     0
  9
$DIMCLRT
 70
     0
  9
$DIMTFAC
 40
1.0
  9
$DIMGAP
 40
0.09
  9
$DIMJUST
 70
     0
  9
$DIMSD1
 70
     0
  9
$DIMSD2
 70
     0
  9
$DIMTOLJ
 70
     1
  9
$DIMTZIN
 70
     0
  9
$DIMALTZ
 70
     0
  9
$DIMALTTZ
 70
     0
  9
$DIMUPT
 70
     0
  9
$DIMDEC
 70
     4
  9
$DIMTDEC
 70
     4
  9
$DIMALTU
 70
     2
  9
$DIMALTTD
 70
     2
  9
$DIMTXSTY
  7
Standard
  9
$DIMAUNIT
 70
     0
  9
$DIMADEC
 70
     0
  9
$DIMALTRND
 40
0.0
  9
$DIMAZIN
 70
     0
  9
$DIMDSEP
 70
    46
  9
$DIMATFIT
 70
     3
  9
$DIMFRAC
 70
     0
  9
$DIMLDRBLK
  1

  9
$DIMLUNIT
 70
     2
  9
$DIMLWD
 70
    -2
  9
$DIMLWE
 70
    -2
  9
$DIMTMOVE
 70
     0
  9
$LUNITS
 70
     2
  9
$LUPREC
 70
     4
  9
$SKETCHINC
 40
0.1
  9
$FILLETRAD
 40
0.5
  9
$AUNITS
 70
     0
  9
$AUPREC
 70
     0
  9
$MENU
  1
.
  9
$ELEVATION
 40
0.0
  9
$PELEVATION
 40
0.0
  9
$THICKNESS
 40
0.0
  9
$LIMCHECK
 70
     0
  9
$CHAMFERA
 40
0.5
  9
$CHAMFERB
 40
0.5
  9
$CHAMFERC
 40
1.0
  9
$CHAMFERD
 40
0.0
  9
$SKPOLY
 70
     0
  9
$TDCREATE
 40
2456997.596973599
  9
$TDUCREATE
 40
2456997.555306933
  9
$TDUPDATE
 40
2456997.596973958
  9
$TDUUPDATE
 40
2456997.555307291
  9
$TDINDWG
 40
0.0000000116
  9
$TDUSRTIMER
 40
0.0000000116
  9
$USRTIMER
 70
     1
  9
$ANGBASE
 50
0.0
  9
$ANGDIR
 70
     0
  9
$PDMODE
 70
     0
  9
$PDSIZE
 40
0.0
  9
$PLINEWID
 40
0.0
  9
$SPLFRAME
 70
     0
  9
$SPLINETYPE
 70
     6
  9
$SPLINESEGS
 70
     8
  9
$HANDSEED
  5
83B
  9
$SURFTAB1
 70
     6
  9
$SURFTAB2
 70
     6
  9
$SURFTYPE
 70
     6
  9
$SURFU
 70
     6
  9
$SURFV
 70
     6
  9
$UCSBASE
  2

  9
$UCSNAME
  2

  9
$UCSORG
 10
0.0
 20
0.0
 30
0.0
  9
$UCSXDIR
 10
1.0
 20
0.0
 30
0.0
  9
$UCSYDIR
 10
0.0
 20
1.0
 30
0.0
  9
$UCSORTHOREF
  2

  9
$UCSORTHOVIEW
 70
     0
  9
$UCSORGTOP
 10
0.0
 20
0.0
 30
0.0
  9
$UCSORGBOTTOM
 10
0.0
 20
0.0
 30
0.0
  9
$UCSORGLEFT
 10
0.0
 20
0.0
 30
0.0
  9
$UCSORGRIGHT
 10
0.0
 20
0.0
 30
0.0
  9
$UCSORGFRONT
 10
0.0
 20
0.0
 30
0.0
  9
$UCSORGBACK
 10
0.0
 20
0.0
 30
0.0
  9
$PUCSBASE
  2

  9
$PUCSNAME
  2

  9
$PUCSORG
 10
0.0
 20
0.0
 30
0.0
  9
$PUCSXDIR
 10
1.0
 20
0.0
 30
0.0
  9
$PUCSYDIR
 10
0.0
 20
1.0
 30
0.0
  9
$PUCSORTHOREF
  2

  9
$PUCSORTHOVIEW
 70
     0
  9
$PUCSORGTOP
 10
0.0
 20
0.0
 30
0.0
  9
$PUCSORGBOTTOM
 10
0.0
 20
0.0
 30
0.0
  9
$PUCSORGLEFT
 10
0.0
 20
0.0
 30
0.0
  9
$PUCSORGRIGHT
 10
0.0
 20
0.0
 30
0.0
  9
$PUCSORGFRONT
 10
0.0
 20
0.0
 30
0.0
  9
$PUCSORGBACK
 10
0.0
 20
0.0
 30
0.0
  9
$USERI1
 70
     0
  9
$USERI2
 70
     0
  9
$USERI3
 70
     0
  9
$USERI4
 70
     0
  9
$USERI5
 70
     0
  9
$USERR1
 40
18.1
  9
$USERR2
 40
0.0
  9
$USERR3
 40
0.0
  9
$USERR4
 40
0.0
  9
$USERR5
 40
0.0
  9
$WORLDVIEW
 70
     1
  9
$SHADEDGE
 70
     3
  9
$SHADEDIF
 70
    70
  9
$TILEMODE
 70
     1
  9
$MAXACTVP
 70
    64
  9
$PINSBASE
 10
0.0
 20
0.0
 30
0.0
  9
$PLIMCHECK
 70
     0
  9
$PEXTMIN
 10
1.00000000000000E+20
 20
1.00000000000000E+20
 30
1.00000000000000E+20
  9
$PEXTMAX
 10
-1.00000000000000E+20
 20
-1.00000000000000E+20
 30
-1.00000000000000E+20
  9
$PLIMMIN
 10
0.0
 20
0.0
  9
$PLIMMAX
 10
12.0
 20
9.0
  9
$UNITMODE
 70
     0
  9
$VISRETAIN
 70
     1
  9
$PLINEGEN
 70
     0
  9
$PSLTSCALE
 70
     1
  9
$TREEDEPTH
 70
  3020
  9
$CMLSTYLE
  2
Standard
  9
$CMLJUST
 70
     0
  9
$CMLSCALE
 40
1.0
  9
$PROXYGRAPHICS
 70
     1
  9
$MEASUREMENT
 70
     1
  9
$CELWEIGHT
370
    -1
  9
$ENDCAPS
280
     0
  9
$JOINSTYLE
280
     0
  9
$LWDISPLAY
290
     0
  9
$INSUNITS
 70
     4
  9
$HYPERLINKBASE
  1

  9
$STYLESHEET
  1

  9
$XEDIT
290
     1
  9
$CEPSNTYPE
380
     0
  9
$PSTYLEMODE
290
     1
  9
$FINGERPRINTGUID
  2
{A8667832-5C14-42FB-8BB8-9BA843164DE2}
  9
$VERSIONGUID
  2
{FAEB1C32-E019-11D5-929B-00C0DF256EC4}
  9
$EXTNAMES
290
     1
  9
$PSVPSCALE
 40
0.0
  9
$OLESTARTUP
290
     0
  0
ENDSEC
  0
SECTION
  2
CLASSES
  0
CLASS
  1
ACDBDICTIONARYWDFLT
  2
AcDbDictionaryWithDefault
  3
ObjectDBX Classes
 90
        0
280
     0
281
     0
  0
CLASS
  1
VISUALSTYLE
  2
AcDbVisualStyle
  3
ObjectDBX Classes
 90
     4095
280
     0
281
     0
  0
CLASS
  1
MATERIAL
  2
AcDbMaterial
  3
ObjectDBX Classes
 90
     1153
280
     0
281
     0
  0
CLASS
  1
DICTIONARYVAR
  2
AcDbDictionaryVar
  3
ObjectDBX Classes
 90
        0
280
     0
281
     0
  0
CLASS
  1
ACDBPLACEHOLDER
  2
AcDbPlaceHolder
  3
ObjectDBX Classes
 90
        0
280
     0
281
     0
  0
CLASS
  1
LAYOUT
  2
AcDbLayout
  3
ObjectDBX Classes
 90
        0
280
     0
281
     0
  0
ENDSEC
  0
SECTION
  2
TABLES
  0
TABLE
  2
VPORT
  5
8
330
0
100
AcDbSymbolTable
 70
     1
  0
VPORT
  5
29
330
8
100
AcDbSymbolTableRecord
100
AcDbViewportTableRecord
  2
*Active
 70
     0
 10
0.0
 20
0.0
 11
1.0
 21
1.0
 12
105.0000000000001
 22
148.5000000000001
 13
0.0
 23
0.0
 14
0.5
 24
0.5
 15
0.5
 25
0.5
 16
0.0
 26
0.0
 36
1.0
 17
0.0
 27
0.0
 37
0.0
 40
326.7000000000002
 41
1.60267857142857
 42
50.0
 43
0.0
 44
0.0
 50
0.0
 51
0.0
 71
     0
 72
   100
 73
     1
 74
     3
 75
     0
 76
     0
 77
     0
 78
     0
281
     0
 65
     1
110
0.0
120
0.0
130
0.0
111
1.0
121
0.0
131
0.0
112
0.0
122
1.0
132
0.0
 79
     0
146
0.0
  0
ENDTAB
  0
TABLE
  2
LTYPE
  5
5
330
0
100
AcDbSymbolTable
 70
     8
  0
LTYPE
  5
14
330
5
100
AcDbSymbolTableRecord
100
AcDbLinetypeTableRecord
  2
ByBlock
 70
     0
  3

 72
    65
 73
     0
 40
0.0
  0
LTYPE
  5
15
330
5
100
AcDbSymbolTableRecord
100
AcDbLinetypeTableRecord
  2
ByLayer
 70
     0
  3

 72
    65
 73
     0
 40
0.0
  0
LTYPE
  5
16
330
5
100
AcDbSymbolTableRecord
100
AcDbLinetypeTableRecord
  2
Continuous
 70
     0
  3
Solid line
 72
    65
 73
     0
 40
0.0
  0
LTYPE
  5
3F
330
5
100
AcDbSymbolTableRecord
100
AcDbLinetypeTableRecord
  2
DASHED
 70
     0
  3
Dashed
 72
    65
 73
     2
 40
15.0
 49
7.0
 74
     0
 49
-8.0
 74
     0
  0
LTYPE
  5
40
330
5
100
AcDbSymbolTableRecord
100
AcDbLinetypeTableRecord
  2
DOTTED
 70
     0
  3
Dotted
 72
    65
 73
     2
 40
1.0
 49
0.0
 74
     0
 49
-1.0
 74
     0
  0
LTYPE
  5
41
330
5
100
AcDbSymbolTableRecord
100
AcDbLinetypeTableRecord
  2
DOT_CENTER
 70
     0
  3
Dot_Center
 72
    65
 73
     4
 40
14.0
 49
12.0
 74
     0
 49
-1.0
 74
     0
 49
0.0
 74
     0
 49
-1.0
 74
     0
  0
LTYPE
  5
42
330
5
100
AcDbSymbolTableRecord
100
AcDbLinetypeTableRecord
  2
LONG_DASHED
 70
     0
  3
Long_Dashed
 72
    65
 73
     2
 40
15.0
 49
10.0
 74
     0
 49
-5.0
 74
     0
  0
LTYPE
  5
43
330
5
100
AcDbSymbolTableRecord
100
AcDbLinetypeTableRecord
  2
DASH_CENTER
 70
     0
  3
Dash_Center
 72
    65
 73
     4
 40
14.0
 49
11.0
 74
     0
 49
-1.0
 74
     0
 49
1.0
 74
     0
 49
-1.0
 74
     0
  0
LTYPE
  5
44
330
5
100
AcDbSymbolTableRecord
100
AcDbLinetypeTableRecord
  2
PHANTOM
 70
     0
  3
Phantom
 72
    65
 73
     6
 40
13.0
 49
10.0
 74
     0
 49
-1.0
 74
     0
 49
0.0
 74
     0
 49
-1.0
 74
     0
 49
0.0
 74
     0
 49
-1.0
 74
     0
  0
LTYPE
  5
45
330
5
100
AcDbSymbolTableRecord
100
AcDbLinetypeTableRecord
  2
CENTER_DASH_DASH
 70
     0
  3
Center_Dash_Dash
 72
    65
 73
     6
 40
14.0
 49
9.0
 74
     0
 49
-1.0
 74
     0
 49
1.0
 74
     0
 49
-1.0
 74
     0
 49
1.0
 74
     0
 49
-1.0
 74
     0
  0
ENDTAB
  0
TABLE
  2
LAYER
  5
2
330
0
100
AcDbSymbolTable
 70
     8
  0
LAYER
  5
10
330
2
100
AcDbSymbolTableRecord
100
AcDbLayerTableRecord
  2
0
 70
     0
 62
     7
  6
Continuous
370
    -3
390
F
  0
LAYER
  5
46
330
2
100
AcDbSymbolTableRecord
100
AcDbLayerTableRecord
  2
1
 70
     0
 62
     7
  6
Continuous
370
    -3
390
F
  0
LAYER
  5
47
330
2
100
AcDbSymbolTableRecord
100
AcDbLayerTableRecord
  2
Bemaßungen_TC_020513_DIN_
 70
     0
 62
     7
  6
Continuous
370
    -3
390
F
  0
LAYER
  5
48
330
2
100
AcDbSymbolTableRecord
100
AcDbLayerTableRecord
  2
Mittellinie_TC_020513_DIN_
 70
     0
 62
     7
  6
Continuous
370
    -3
390
F
  0
LAYER
  5
49
330
2
100
AcDbSymbolTableRecord
100
AcDbLayerTableRecord
  2
Sichtbare_Kanten_TC_020513_DIN_
 70
     0
 62
     7
  6
Continuous
370
    -3
390
F
  0
LAYER
  5
4A
330
2
100
AcDbSymbolTableRecord
100
AcDbLayerTableRecord
  2
Skizziergeometrie_TC_020513_DIN_
 70
     0
 62
     7
  6
Continuous
370
    -3
390
F
  0
LAYER
  5
4B
330
2
100
AcDbSymbolTableRecord
100
AcDbLayerTableRecord
  2
Stich_1-Linien_TC_020513_DIN_
 70
     0
 62
     7
  6
Continuous
370
    -3
390
F
  0
LAYER
  5
4C
330
2
100
AcDbSymbolTableRecord
100
AcDbLayerTableRecord
  2
Symbole_TC_020513_DIN_
 70
     0
 62
     7
  6
Continuous
370
    -3
390
F
  0
ENDTAB
  0
TABLE
  2
STYLE
  5
3
330
0
100
AcDbSymbolTable
 70
     6
  0
STYLE
  5
11
330
3
100
AcDbSymbolTableRecord
100
AcDbTextStyleTableRecord
  2
Standard
 70
     0
 40
0.0
 41
1.0
 50
0.0
 71
     0
 42
0.2
  3
txt
  4

  0
STYLE
  5
A1
330
3
100
AcDbSymbolTableRecord
100
AcDbTextStyleTableRecord
  2
CONVERTER_11
 70
     0
 40
0.0
 41
1.38
 50
0.0
 71
     0
 42
0.2
  3
ARIAL.TTF
  4

  0
STYLE
  5
A3
330
3
100
AcDbSymbolTableRecord
100
AcDbTextStyleTableRecord
  2
CONVERTER_12
 70
     0
 40
0.0
 41
1.2
 50
0.0
 71
     0
 42
0.2
  3
ARIAL.TTF
  4

  0
STYLE
  5
A9
330
3
100
AcDbSymbolTableRecord
100
AcDbTextStyleTableRecord
  2
CONVERTER_13
 70
     0
 40
0.0
 41
1.08
 50
0.0
 71
     0
 42
0.2
  3
ARIAL.TTF
  4

  0
STYLE
  5
799
330
3
100
AcDbSymbolTableRecord
100
AcDbTextStyleTableRecord
  2
CONVERTER_14
 70
     0
 40
0.0
 41
0.75
 50
0.0
 71
     0
 42
0.2
  3
txt.shx
  4

  0
STYLE
  5
7A1
330
3
100
AcDbSymbolTableRecord
100
AcDbTextStyleTableRecord
  2
CONVERTER_15
 70
     0
 40
0.0
 41
0.95
 50
0.0
 71
     0
 42
0.2
  3
simplex.shx
  4

  0
ENDTAB
  0
TABLE
  2
VIEW
  5
6
330
0
100
AcDbSymbolTable
 70
     0
  0
ENDTAB
  0
TABLE
  2
UCS
  5
7
330
0
100
AcDbSymbolTable
 70
     0
  0
ENDTAB
  0
TABLE
  2
APPID
  5
9
330
0
100
AcDbSymbolTable
 70
     1
  0
APPID
  5
12
330
9
100
AcDbSymbolTableRecord
100
AcDbRegAppTableRecord
  2
ACAD
 70
     0
  0
ENDTAB
  0
TABLE
  2
DIMSTYLE
  5
A
330
0
100
AcDbSymbolTable
 70
     9
100
AcDbDimStyleTable
  0
DIMSTYLE
105
27
330
A
100
AcDbSymbolTableRecord
100
AcDbDimStyleTableRecord
  2
Standard
 70
     0
178
     0
340
11
  0
DIMSTYLE
105
7A5
102
{ACAD_REACTORS
330
7A6
102
}
330
A
100
AcDbSymbolTableRecord
100
AcDbDimStyleTableRecord
  2
ME10_DIM_10
 70
     0
 41
3.0
 42
0.5
 44
1.0
 73
     0
 74
     0
 77
     1
 78
     8
140
3.0
147
2.0
172
     1
173
     1
174
     1
175
     1
176
     2
177
     2
271
     2
178
     4
271
     2
340
7A1
  0
DIMSTYLE
105
7B0
102
{ACAD_REACTORS
330
7B1
102
}
330
A
100
AcDbSymbolTableRecord
100
AcDbDimStyleTableRecord
  2
ME10_DIM_11
 70
     0
 41
3.0
 42
0.5
 44
1.0
 73
     0
 74
     0
 77
     1
 78
     8
140
3.0
147
2.0
172
     1
173
     1
174
     1
175
     1
176
     2
177
     2
271
     2
178
     4
271
     2
340
7A1
  0
DIMSTYLE
105
7BB
102
{ACAD_REACTORS
330
7BC
102
}
330
A
100
AcDbSymbolTableRecord
100
AcDbDimStyleTableRecord
  2
ME10_DIM_12
 70
     0
 41
3.0
 42
0.5
 44
1.0
 73
     0
 74
     0
 77
     1
 78
     8
140
3.0
147
2.0
172
     1
173
     1
174
     1
175
     1
176
     2
177
     2
271
     2
178
     4
271
     2
340
7A1
  0
DIMSTYLE
105
7C6
102
{ACAD_REACTORS
330
7C7
102
}
330
A
100
AcDbSymbolTableRecord
100
AcDbDimStyleTableRecord
  2
ME10_DIM_13
 70
     0
 41
3.0
 42
0.5
 44
1.0
 73
     0
 74
     0
 77
     1
 78
     8
140
3.0
147
2.0
172
     1
173
     1
174
     1
175
     1
176
     2
177
     2
271
     2
178
     4
271
     2
340
7A1
  0
DIMSTYLE
105
7D1
102
{ACAD_REACTORS
330
7D2
102
}
330
A
100
AcDbSymbolTableRecord
100
AcDbDimStyleTableRecord
  2
ME10_DIM_14
 70
     0
 41
3.0
 42
0.5
 44
1.0
 73
     0
 74
     0
 77
     1
 78
     8
140
3.0
147
2.0
172
     1
173
     1
174
     1
175
     1
176
     2
177
     2
271
     2
178
     4
271
     2
340
7A1
  0
DIMSTYLE
105
7DC
102
{ACAD_REACTORS
330
7DD
102
}
330
A
100
AcDbSymbolTableRecord
100
AcDbDimStyleTableRecord
  2
ME10_DIM_15
 70
     0
 41
3.0
 42
0.5
 44
1.0
 73
     0
 74
     0
 77
     1
 78
     8
140
3.0
147
2.0
172
     1
173
     1
174
     1
175
     1
176
     2
177
     2
271
     2
178
     4
271
     2
340
7A1
  0
DIMSTYLE
105
7E7
102
{ACAD_REACTORS
330
7E8
102
}
330
A
100
AcDbSymbolTableRecord
100
AcDbDimStyleTableRecord
  2
ME10_DIM_16
 70
     0
 41
3.0
 42
0.5
 44
1.0
 73
     0
 74
     0
 77
     1
 78
     8
140
3.0
147
2.0
172
     1
173
     1
174
     1
175
     1
176
     2
177
     2
271
     2
178
     4
271
     2
340
7A1
  0
DIMSTYLE
105
7F2
102
{ACAD_REACTORS
330
7F3
102
}
330
A
100
AcDbSymbolTableRecord
100
AcDbDimStyleTableRecord
  2
ME10_DIM_17
 70
     0
 41
3.0
 42
0.5
 44
1.0
 73
     0
 74
     0
 77
     1
 78
     8
140
3.0
147
2.0
172
     1
173
     1
174
     1
175
     1
176
     2
177
     2
271
     2
178
     4
271
     2
340
7A1
  0
ENDTAB
  0
TABLE
  2
BLOCK_RECORD
  5
1
330
0
100
AcDbSymbolTable
 70
    14
  0
BLOCK_RECORD
  5
1F
330
1
100
AcDbSymbolTableRecord
100
AcDbBlockTableRecord
  2
*Model_Space
340
22
  0
BLOCK_RECORD
  5
1B
330
1
100
AcDbSymbolTableRecord
100
AcDbBlockTableRecord
  2
*Paper_Space
340
1E
  0
BLOCK_RECORD
  5
23
330
1
100
AcDbSymbolTableRecord
100
AcDbBlockTableRecord
  2
*Paper_Space0
340
26
  0
BLOCK_RECORD
  5
4D
330
1
100
AcDbSymbolTableRecord
100
AcDbBlockTableRecord
  2
_formato_A4
340
0
102
{BLKREFS
331
51
102
}
  0
BLOCK_RECORD
  5
50
330
1
100
AcDbSymbolTableRecord
100
AcDbBlockTableRecord
  2
A4
340
0
102
{BLKREFS
331
54
102
}
  0
BLOCK_RECORD
  5
79B
330
1
100
AcDbSymbolTableRecord
100
AcDbBlockTableRecord
  2
*D3
340
0
  0
BLOCK_RECORD
  5
7A7
330
1
100
AcDbSymbolTableRecord
100
AcDbBlockTableRecord
  2
*D4
340
0
  0
BLOCK_RECORD
  5
7B2
330
1
100
AcDbSymbolTableRecord
100
AcDbBlockTableRecord
  2
*D5
340
0
  0
BLOCK_RECORD
  5
7BD
330
1
100
AcDbSymbolTableRecord
100
AcDbBlockTableRecord
  2
*D6
340
0
  0
BLOCK_RECORD
  5
7C8
330
1
100
AcDbSymbolTableRecord
100
AcDbBlockTableRecord
  2
*D7
340
0
  0
BLOCK_RECORD
  5
7D3
330
1
100
AcDbSymbolTableRecord
100
AcDbBlockTableRecord
  2
*D8
340
0
  0
BLOCK_RECORD
  5
7DE
330
1
100
AcDbSymbolTableRecord
100
AcDbBlockTableRecord
  2
*D9
340
0
  0
BLOCK_RECORD
  5
7E9
330
1
100
AcDbSymbolTableRecord
100
AcDbBlockTableRecord
  2
*D10
340
0
  0
BLOCK_RECORD
  5
7F4
330
1
100
AcDbSymbolTableRecord
100
AcDbBlockTableRecord
  2
*D11
340
0
102
{BLKREFS
331
7FC
102
}
  0
BLOCK_RECORD
  5
7FD
330
1
100
AcDbSymbolTableRecord
100
AcDbBlockTableRecord
  2
*D12
340
0
102
{BLKREFS
331
805
102
}
  0
BLOCK_RECORD
  5
806
330
1
100
AcDbSymbolTableRecord
100
AcDbBlockTableRecord
  2
*D13
340
0
102
{BLKREFS
331
80F
102
}
  0
ENDTAB
  0
ENDSEC
  0
SECTION
  2
BLOCKS
  0
BLOCK
  5
20
330
1F
100
AcDbEntity
  8
0
100
AcDbBlockBegin
  2
*Model_Space
 70
     0
 10
0.0
 20
0.0
 30
0.0
  3
*Model_Space
  1

  0
ENDBLK
  5
21
330
1F
100
AcDbEntity
  8
0
100
AcDbBlockEnd
  0
BLOCK
  5
1C
330
1B
100
AcDbEntity
 67
     1
  8
0
100
AcDbBlockBegin
  2
*Paper_Space
 70
     0
 10
0.0
 20
0.0
 30
0.0
  3
*Paper_Space
  1

  0
ENDBLK
  5
1D
330
1B
100
AcDbEntity
 67
     1
  8
0
100
AcDbBlockEnd
  0
BLOCK
  5
24
330
23
100
AcDbEntity
  8
0
100
AcDbBlockBegin
  2
*Paper_Space0
 70
     0
 10
0.0
 20
0.0
 30
0.0
  3
*Paper_Space0
  1

  0
ENDBLK
  5
25
330
23
100
AcDbEntity
  8
0
100
AcDbBlockEnd
  0
BLOCK
  5
4E
330
4D
100
AcDbEntity
  8
0
100
AcDbBlockBegin
  2
_formato_A4
 70
     0
 10
210.0000000000001
 20
0.0
 30
0.0
  3
_formato_A4
  1

  0
LINE
  5
55
330
4D
100
AcDbEntity
  8
1
  6
Continuous
 62
     7
100
AcDbLine
 10
21.00000000000011
 20
14.99999999999989
 30
0.0
 11
51.00000000000011
 21
14.99999999999989
 31
0.0
  0
LINE
  5
56
330
4D
100
AcDbEntity
  8
1
  6
Continuous
 62
     7
100
AcDbLine
 10
21.00000000000011
 20
20.0
 30
0.0
 11
21.00000000000011
 21
4.99999999999989
 31
0.0
  0
LINE
  5
57
330
4D
100
AcDbEntity
  8
1
  6
Continuous
 62
     7
100
AcDbLine
 10
161.0000000000001
 20
20.0
 30
0.0
 11
161.0000000000001
 21
5.0
 31
0.0
  0
LINE
  5
58
330
4D
100
AcDbEntity
  8
1
  6
Continuous
 62
     7
100
AcDbLine
 10
178.3526013774855
 20
20.0
 30
0.0
 11
178.3526013774855
 21
5.0
 31
0.0
  0
LINE
  5
59
330
4D
100
AcDbEntity
  8
1
  6
Continuous
 62
     7
100
AcDbLine
 10
51.00000000000011
 20
20.0
 30
0.0
 11
51.00000000000011
 21
5.0
 31
0.0
  0
LINE
  5
5A
330
4D
100
AcDbEntity
  8
1
  6
Continuous
 62
     7
100
AcDbLine
 10
21.00000000000011
 20
9.99999999999986
 30
0.0
 11
51.00000000000011
 21
9.99999999999986
 31
0.0
  0
LINE
  5
5B
330
4D
100
AcDbEntity
  8
1
  6
Continuous
 62
     7
100
AcDbLine
 10
0.0
 20
148.4999999999998
 30
0.0
 11
15.0
 21
148.4999999999998
 31
0.0
  0
LINE
  5
5C
330
4D
100
AcDbEntity
  8
1
  6
Continuous
 62
     7
100
AcDbLine
 10
210.0000000000001
 20
0.0
 30
0.0
 11
210.0000000000001
 21
297.0000000000001
 31
0.0
  0
LINE
  5
5D
330
4D
100
AcDbEntity
  8
1
  6
Continuous
 62
     7
100
AcDbLine
 10
0.0
 20
0.0
 30
0.0
 11
210.0000000000001
 21
0.0
 31
0.0
  0
LINE
  5
5E
330
4D
100
AcDbEntity
  8
1
  6
Continuous
 62
     7
100
AcDbLine
 10
0.0
 20
297.0000000000001
 30
0.0
 11
0.0
 21
0.0
 31
0.0
  0
LINE
  5
5F
330
4D
100
AcDbEntity
  8
1
  6
Continuous
 62
     7
100
AcDbLine
 10
210.0000000000001
 20
297.0000000000001
 30
0.0
 11
0.0
 21
297.0000000000001
 31
0.0
  0
LINE
  5
60
330
4D
100
AcDbEntity
  8
1
  6
Continuous
 62
     7
100
AcDbLine
 10
205.0000000000001
 20
4.99999999999989
 30
0.0
 11
205.0000000000001
 21
292.0000000000001
 31
0.0
  0
LINE
  5
61
330
4D
100
AcDbEntity
  8
1
  6
Continuous
 62
     7
100
AcDbLine
 10
205.0000000000001
 20
292.0000000000001
 30
0.0
 11
21.00000000000011
 21
292.0000000000001
 31
0.0
  0
LINE
  5
62
330
4D
100
AcDbEntity
  8
1
  6
Continuous
 62
     7
100
AcDbLine
 10
21.00000000000011
 20
292.0000000000001
 30
0.0
 11
21.00000000000011
 21
4.99999999999989
 31
0.0
  0
LINE
  5
63
102
{ACAD_REACTORS
330
B0
102
}
330
4D
100
AcDbEntity
  8
1
  6
Continuous
 62
     7
100
AcDbLine
 10
194.0096340220762
 20
10.07749983983263
 30
0.0
 11
194.0096340220762
 21
14.92250016016737
 31
0.0
  0
LINE
  5
64
102
{ACAD_REACTORS
330
AD
102
}
330
4D
100
AcDbEntity
  8
1
  6
Continuous
 62
     7
100
AcDbLine
 10
192.6763006887428
 20
12.5
 30
0.0
 11
192.6763006887428
 21
14.23205080756884
 31
0.0
  0
LINE
  5
65
102
{ACAD_REACTORS
330
AD
102
}
330
4D
100
AcDbEntity
  8
1
  6
Continuous
 62
     7
100
AcDbLine
 10
192.6763006887428
 20
14.23205080756884
 30
0.0
 11
191.8206382560402
 21
12.75
 31
0.0
  0
LINE
  5
66
102
{ACAD_REACTORS
330
AD
102
}
330
4D
100
AcDbEntity
  8
1
  6
Continuous
 62
     7
100
AcDbLine
 10
191.5319631214453
 20
12.75
 30
0.0
 11
190.6763006887428
 21
14.23205080756884
 31
0.0
  0
LINE
  5
67
102
{ACAD_REACTORS
330
AD
102
}
330
4D
100
AcDbEntity
  8
1
  6
Continuous
 62
     7
100
AcDbLine
 10
190.6763006887428
 20
14.23205080756884
 30
0.0
 11
190.6763006887428
 21
12.5
 31
0.0
  0
LINE
  5
68
330
4D
100
AcDbEntity
  8
1
  6
Continuous
 62
     7
100
AcDbLine
 10
183.2598654136012
 20
12.64436426434133
 30
0.0
 11
191.6763006887428
 21
17.5
 31
0.0
  0
LINE
  5
69
330
4D
100
AcDbEntity
  8
1
  6
Continuous
 62
     7
100
AcDbLine
 10
191.6763006887428
 20
17.5
 30
0.0
 11
200.0927359638843
 21
12.64436426434133
 31
0.0
  0
LINE
  5
6A
330
4D
100
AcDbEntity
  8
1
  6
Continuous
 62
     7
100
AcDbLine
 10
200.0927359638843
 20
12.35563573565855
 30
0.0
 11
191.6763006887428
 21
7.5
 31
0.0
  0
LINE
  5
6B
330
4D
100
AcDbEntity
  8
1
  6
Continuous
 62
     7
100
AcDbLine
 10
191.6763006887428
 20
7.5
 30
0.0
 11
183.2598654136012
 21
12.35563573565855
 31
0.0
  0
LINE
  5
6C
102
{ACAD_REACTORS
330
AD
102
}
330
4D
100
AcDbEntity
  8
1
  6
Continuous
 62
     7
100
AcDbLine
 10
190.0096340220761
 20
12.5
 30
0.0
 11
190.0096340220761
 21
15.73121731203457
 31
0.0
  0
LINE
  5
6D
102
{ACAD_REACTORS
330
AD
102
}
330
4D
100
AcDbEntity
  8
1
  6
Continuous
 62
     7
100
AcDbLine
 10
190.5040677056995
 20
15.86370041827229
 30
0.0
 11
191.6763006887428
 21
13.83333333333326
 31
0.0
  0
LINE
  5
6E
102
{ACAD_REACTORS
330
AD
102
}
330
4D
100
AcDbEntity
  8
1
  6
Continuous
 62
     7
100
AcDbLine
 10
190.0096340220761
 20
12.5
 30
0.0
 11
190.0096340220761
 21
10.84758507263291
 31
0.0
  0
LINE
  5
6F
102
{ACAD_REACTORS
330
AD
102
}
330
4D
100
AcDbEntity
  8
1
  6
Continuous
 62
     7
100
AcDbLine
 10
190.6763006887428
 20
10.84758507263291
 30
0.0
 11
190.6763006887428
 21
12.5
 31
0.0
  0
LINE
  5
70
102
{ACAD_REACTORS
330
AD
102
}
330
4D
100
AcDbEntity
  8
1
  6
Continuous
 62
     7
100
AcDbLine
 10
192.6763006887428
 20
12.5
 30
0.0
 11
192.6763006887428
 21
9.3082690706018
 31
0.0
  0
LINE
  5
71
102
{ACAD_REACTORS
330
AD
102
}
330
4D
100
AcDbEntity
  8
1
  6
Continuous
 62
     7
100
AcDbLine
 10
193.3429673554094
 20
9.3082690706018
 30
0.0
 11
193.3429673554094
 21
15.73121731203457
 31
0.0
  0
LINE
  5
72
102
{ACAD_REACTORS
330
AD
102
}
330
4D
100
AcDbEntity
  8
1
  6
Continuous
 62
     7
100
AcDbLine
 10
192.8485336717861
 20
15.86370041827229
 30
0.0
 11
191.6763006887428
 21
13.83333333333326
 31
0.0
  0
LINE
  5
73
102
{ACAD_REACTORS
330
AE
102
}
330
4D
100
AcDbEntity
  8
1
  6
Continuous
 62
     7
100
AcDbLine
 10
188.6763006887428
 20
10.27002114803258
 30
0.0
 11
188.6763006887428
 21
14.92250016016737
 31
0.0
  0
LINE
  5
74
102
{ACAD_REACTORS
330
AE
102
}
330
4D
100
AcDbEntity
  8
1
  6
Continuous
 62
     7
100
AcDbLine
 10
189.3429673554094
 20
14.92250016016737
 30
0.0
 11
189.3429673554094
 21
10.2700211480327
 31
0.0
  0
LINE
  5
75
102
{ACAD_REACTORS
330
AE
102
}
330
4D
100
AcDbEntity
  8
1
  6
Continuous
 62
     7
100
AcDbLine
 10
189.3429673554094
 20
10.2700211480327
 30
0.0
 11
191.5095415065727
 21
9.0200745223616
 31
0.0
  0
LINE
  5
76
102
{ACAD_REACTORS
330
AE
102
}
330
4D
100
AcDbEntity
  8
1
  6
Continuous
 62
     7
100
AcDbLine
 10
191.1763932042462
 20
8.44261746499581
 30
0.0
 11
189.0098190530831
 21
9.69256409066691
 31
0.0
  0
LINE
  5
77
102
{ACAD_REACTORS
330
AF
102
}
330
4D
100
AcDbEntity
  8
1
  6
Continuous
 62
     7
100
AcDbLine
 10
188.0096340220761
 20
14.15326939093666
 30
0.0
 11
188.0096340220761
 21
11.0392519172633
 31
0.0
  0
LINE
  5
78
102
{ACAD_REACTORS
330
AF
102
}
330
4D
100
AcDbEntity
  8
1
  6
Continuous
 62
     7
100
AcDbLine
 10
188.0096340220761
 20
11.0392519172633
 30
0.0
 11
188.0096340220761
 21
10.84673060906323
 31
0.0
  0
LINE
  5
79
102
{ACAD_REACTORS
330
AF
102
}
330
4D
100
AcDbEntity
  8
1
  6
Continuous
 62
     7
100
AcDbLine
 10
187.3429673554094
 20
10.84673060906323
 30
0.0
 11
187.3429673554094
 21
14.15326939093666
 31
0.0
  0
LINE
  5
7A
102
{ACAD_REACTORS
330
B0
102
}
330
4D
100
AcDbEntity
  8
1
  6
Continuous
 62
     7
100
AcDbLine
 10
194.5095415065727
 20
15.21122868885027
 30
0.0
 11
195.8428748399059
 21
14.44199791961944
 31
0.0
  0
LINE
  5
7B
102
{ACAD_REACTORS
330
B0
102
}
330
4D
100
AcDbEntity
  8
1
  6
Continuous
 62
     7
100
AcDbLine
 10
195.5097265375796
 20
13.86454086225376
 30
0.0
 11
194.6763006887428
 21
14.34536346735194
 31
0.0
  0
LINE
  5
7C
102
{ACAD_REACTORS
330
B0
102
}
330
4D
100
AcDbEntity
  8
1
  6
Continuous
 62
     7
100
AcDbLine
 10
194.6763006887428
 20
14.34536346735194
 30
0.0
 11
194.6763006887428
 21
12.83333333333326
 31
0.0
  0
LINE
  5
7D
102
{ACAD_REACTORS
330
B0
102
}
330
4D
100
AcDbEntity
  8
1
  6
Continuous
 62
     7
100
AcDbLine
 10
194.6763006887428
 20
12.83333333333326
 30
0.0
 11
195.6763006887428
 21
12.83333333333326
 31
0.0
  0
LINE
  5
7E
102
{ACAD_REACTORS
330
B0
102
}
330
4D
100
AcDbEntity
  8
1
  6
Continuous
 62
     7
100
AcDbLine
 10
195.6763006887428
 20
12.16666666666663
 30
0.0
 11
194.6763006887428
 21
12.16666666666663
 31
0.0
  0
LINE
  5
7F
102
{ACAD_REACTORS
330
B0
102
}
330
4D
100
AcDbEntity
  8
1
  6
Continuous
 62
     7
100
AcDbLine
 10
194.6763006887428
 20
12.16666666666663
 30
0.0
 11
194.6763006887428
 21
10.65463653264794
 31
0.0
  0
LINE
  5
80
102
{ACAD_REACTORS
330
B0
102
}
330
4D
100
AcDbEntity
  8
1
  6
Continuous
 62
     7
100
AcDbLine
 10
194.6763006887428
 20
10.65463653264794
 30
0.0
 11
195.5097265375796
 21
11.13545913774624
 31
0.0
  0
LINE
  5
81
102
{ACAD_REACTORS
330
B0
102
}
330
4D
100
AcDbEntity
  8
1
  6
Continuous
 62
     7
100
AcDbLine
 10
195.8428748399059
 20
10.55800208038033
 30
0.0
 11
194.5095415065727
 21
9.78877131114973
 31
0.0
  0
LINE
  5
82
330
4D
100
AcDbEntity
  8
1
  6
Continuous
 62
     7
100
AcDbLine
 10
21.00000000000011
 20
25.0
 30
0.0
 11
205.0000000000001
 21
25.0
 31
0.0
  0
LINE
  5
83
330
4D
100
AcDbEntity
  8
1
  6
Continuous
 62
     7
100
AcDbLine
 10
28.00000000000011
 20
20.0
 30
0.0
 11
28.00000000000011
 21
25.0
 31
0.0
  0
LINE
  5
84
330
4D
100
AcDbEntity
  8
1
  6
Continuous
 62
     7
100
AcDbLine
 10
46.00000000000023
 20
20.0
 30
0.0
 11
46.00000000000023
 21
25.0
 31
0.0
  0
LINE
  5
85
330
4D
100
AcDbEntity
  8
1
  6
Continuous
 62
     7
100
AcDbLine
 10
21.00000000000011
 20
30.0
 30
0.0
 11
205.0000000000001
 21
30.0
 31
0.0
  0
LINE
  5
86
330
4D
100
AcDbEntity
  8
1
  6
Continuous
 62
     7
100
AcDbLine
 10
28.00000000000011
 20
25.0
 30
0.0
 11
28.00000000000011
 21
30.0
 31
0.0
  0
LINE
  5
87
330
4D
100
AcDbEntity
  8
1
  6
Continuous
 62
     7
100
AcDbLine
 10
46.00000000000023
 20
25.0
 30
0.0
 11
46.00000000000023
 21
30.0
 31
0.0
  0
LINE
  5
88
330
4D
100
AcDbEntity
  8
1
  6
Continuous
 62
     7
100
AcDbLine
 10
21.00000000000011
 20
35.0
 30
0.0
 11
205.0000000000001
 21
35.0
 31
0.0
  0
LINE
  5
89
330
4D
100
AcDbEntity
  8
1
  6
Continuous
 62
     7
100
AcDbLine
 10
28.00000000000011
 20
30.0
 30
0.0
 11
28.00000000000011
 21
35.0
 31
0.0
  0
LINE
  5
8A
330
4D
100
AcDbEntity
  8
1
  6
Continuous
 62
     7
100
AcDbLine
 10
46.00000000000023
 20
30.0
 30
0.0
 11
46.00000000000023
 21
35.0
 31
0.0
  0
LINE
  5
8B
330
4D
100
AcDbEntity
  8
1
  6
Continuous
 62
     7
100
AcDbLine
 10
21.00000000000011
 20
40.0
 30
0.0
 11
205.0000000000001
 21
40.0
 31
0.0
  0
LINE
  5
8C
330
4D
100
AcDbEntity
  8
1
  6
Continuous
 62
     7
100
AcDbLine
 10
28.00000000000011
 20
35.0
 30
0.0
 11
28.00000000000011
 21
40.0
 31
0.0
  0
LINE
  5
8D
330
4D
100
AcDbEntity
  8
1
  6
Continuous
 62
     7
100
AcDbLine
 10
46.00000000000023
 20
35.0
 30
0.0
 11
46.00000000000023
 21
40.0
 31
0.0
  0
LINE
  5
8E
330
4D
100
AcDbEntity
  8
1
  6
Continuous
 62
     7
100
AcDbLine
 10
21.00000000000011
 20
4.99999999999989
 30
0.0
 11
205.0000000000001
 21
4.99999999999989
 31
0.0
  0
LINE
  5
8F
330
4D
100
AcDbEntity
  8
1
  6
Continuous
 62
     7
100
AcDbLine
 10
21.00000000000011
 20
20.0
 30
0.0
 11
205.0000000000001
 21
20.0
 31
0.0
  0
ARC
  5
90
102
{ACAD_REACTORS
330
AD
102
}
330
4D
100
AcDbEntity
  8
1
  6
Continuous
 62
     7
100
AcDbCircle
 10
190.2746002345514
 20
15.73121731203457
 30
0.0
 40
0.2649662124752854
100
AcDbArc
 50
30.00000000001921
 51
180.0
  0
ARC
  5
91
102
{ACAD_REACTORS
330
AD
102
}
330
4D
100
AcDbEntity
  8
1
  6
Continuous
 62
     7
100
AcDbCircle
 10
190.3429673554094
 20
10.84758507263291
 30
0.0
 40
0.333333333333286
100
AcDbArc
 50
180.0
 51
0.0
  0
ARC
  5
92
102
{ACAD_REACTORS
330
AD
102
}
330
4D
100
AcDbEntity
  8
1
  6
Continuous
 62
     7
100
AcDbCircle
 10
193.0096340220762
 20
9.3082690706018
 30
0.0
 40
0.3333333333333997
100
AcDbArc
 50
180.0
 51
0.0
  0
ARC
  5
93
102
{ACAD_REACTORS
330
AD
102
}
330
4D
100
AcDbEntity
  8
1
  6
Continuous
 62
     7
100
AcDbCircle
 10
193.0780011429341
 20
15.73121731203457
 30
0.0
 40
0.2649662124752865
100
AcDbArc
 50
0.0
 51
149.9999999999716
  0
ARC
  5
94
102
{ACAD_REACTORS
330
AE
102
}
330
4D
100
AcDbEntity
  8
1
  6
Continuous
 62
     7
100
AcDbCircle
 10
189.0096340220761
 20
14.92250016016737
 30
0.0
 40
0.333333333333286
100
AcDbArc
 50
0.0
 51
180.0
  0
ARC
  5
95
102
{ACAD_REACTORS
330
AE
102
}
330
4D
100
AcDbEntity
  8
1
  6
Continuous
 62
     7
100
AcDbCircle
 10
191.3429673554094
 20
8.7313459936787
 30
0.0
 40
0.3333333333333567
100
AcDbArc
 50
240.0183606311536
 51
60.01836063113668
  0
ARC
  5
96
102
{ACAD_REACTORS
330
AF
102
}
330
4D
100
AcDbEntity
  8
1
  6
Continuous
 62
     7
100
AcDbCircle
 10
187.6763006887428
 20
14.15326939093666
 30
0.0
 40
0.3333333333333144
100
AcDbArc
 50
0.0
 51
180.0
  0
ARC
  5
97
102
{ACAD_REACTORS
330
AF
102
}
330
4D
100
AcDbEntity
  8
1
  6
Continuous
 62
     7
100
AcDbCircle
 10
187.6763006887428
 20
10.84673060906323
 30
0.0
 40
0.3333333333333997
100
AcDbArc
 50
180.0
 51
0.0
  0
ARC
  5
98
102
{ACAD_REACTORS
330
B0
102
}
330
4D
100
AcDbEntity
  8
1
  6
Continuous
 62
     7
100
AcDbCircle
 10
195.6763006887428
 20
14.15326939093666
 30
0.0
 40
0.3333333333333613
100
AcDbArc
 50
240.018360631154
 51
60.01836063115638
  0
ARC
  5
99
102
{ACAD_REACTORS
330
B0
102
}
330
4D
100
AcDbEntity
  8
1
  6
Continuous
 62
     7
100
AcDbCircle
 10
195.6763006887428
 20
12.5
 30
0.0
 40
0.3333333333333695
100
AcDbArc
 50
270.0
 51
90.0
  0
ARC
  5
9A
102
{ACAD_REACTORS
330
B0
102
}
330
4D
100
AcDbEntity
  8
1
  6
Continuous
 62
     7
100
AcDbCircle
 10
195.6763006887428
 20
10.84673060906323
 30
0.0
 40
0.3333333333333172
100
AcDbArc
 50
299.9816393688334
 51
119.9816393688365
  0
ARC
  5
9B
102
{ACAD_REACTORS
330
AD
102
}
330
4D
100
AcDbEntity
  8
1
  6
Continuous
 62
     7
100
AcDbCircle
 10
191.6763006887428
 20
12.83333333333326
 30
0.0
 40
0.166666666666709
100
AcDbArc
 50
209.9999999999622
 51
330.0000000000231
  0
ARC
  5
9C
102
{ACAD_REACTORS
330
AE
102
}
330
4D
100
AcDbEntity
  8
1
  6
Continuous
 62
     7
100
AcDbCircle
 10
189.3429673554094
 20
10.2700211480327
 30
0.0
 40
0.6666666666666003
100
AcDbArc
 50
180.0000000000104
 51
240.0183606311599
  0
ARC
  5
9D
330
4D
100
AcDbEntity
  8
1
  6
Continuous
 62
     7
100
AcDbCircle
 10
183.3431524891829
 20
12.5
 30
0.0
 40
0.1666666666666265
100
AcDbArc
 50
119.9816393688962
 51
240.0183606311243
  0
ARC
  5
9E
330
4D
100
AcDbEntity
  8
1
  6
Continuous
 62
     7
100
AcDbCircle
 10
200.0094488883027
 20
12.5
 30
0.0
 40
0.166666666666687
100
AcDbArc
 50
299.9816393688503
 51
60.01836063112923
  0
ARC
  5
9F
102
{ACAD_REACTORS
330
B0
102
}
330
4D
100
AcDbEntity
  8
1
  6
Continuous
 62
     7
100
AcDbCircle
 10
194.3429673554094
 20
14.92250016016737
 30
0.0
 40
0.3333333333334166
100
AcDbArc
 50
60.01836063113698
 51
180.0
  0
ARC
  5
A0
102
{ACAD_REACTORS
330
B0
102
}
330
4D
100
AcDbEntity
  8
1
  6
Continuous
 62
     7
100
AcDbCircle
 10
194.3429673554094
 20
10.07749983983263
 30
0.0
 40
0.3333333333332007
100
AcDbArc
 50
180.0
 51
299.9816393688633
  0
MTEXT
  5
A2
330
4D
100
AcDbEntity
  8
1
 62
     7
100
AcDbMText
 10
36.00000000000011
 20
17.49999999999994
 30
0.0
 40
2.5
 41
0.0
 71
     5
 72
     1
  1
dimensions in mm
  7
CONVERTER_11
 73
     1
 44
0.60024009603842
  0
MTEXT
  5
A4
330
4D
100
AcDbEntity
  8
1
 62
     7
100
AcDbMText
 10
16.0
 20
151.4999999999998
 30
0.0
 40
4.0
 41
0.0
 71
     5
 72
     1
  1
Diritti riservati      All rights reserved
  7
CONVERTER_12
 11
0.0
 21
1.0
 31
0.0
 73
     1
 44
1.32052821128451
  0
MTEXT
  5
A5
330
4D
100
AcDbEntity
  8
1
 62
     7
100
AcDbMText
 10
22.00000000000011
 20
12.49999999999987
 30
0.0
 40
3.0
 41
0.0
 71
     4
 72
     1
  1
Date
  7
CONVERTER_12
 73
     1
 44
1.32052821128451
  0
MTEXT
  5
A6
330
4D
100
AcDbEntity
  8
1
 62
     7
100
AcDbMText
 10
32.60000000000014
 20
12.49999999999987
 30
0.0
 40
3.0
 41
0.0
 71
     4
 72
     1
  1
02/07/14
  7
CONVERTER_12
 73
     1
 44
1.32052821128451
  0
MTEXT
  5
A7
330
4D
100
AcDbEntity
  8
1
 62
     7
100
AcDbMText
 10
22.00000000000011
 20
7.49999999999988
 30
0.0
 40
3.0
 41
0.0
 71
     4
 72
     1
  1
Sign.
  7
CONVERTER_12
 73
     1
 44
1.32052821128451
  0
MTEXT
  5
A8
330
4D
100
AcDbEntity
  8
1
 62
     7
100
AcDbMText
 10
32.60000000000014
 20
7.49999999999988
 30
0.0
 40
3.0
 41
0.0
 71
     4
 72
     1
  1
Radice
  7
CONVERTER_12
 73
     1
 44
1.32052821128451
  0
MTEXT
  5
AA
330
4D
100
AcDbEntity
  8
1
 62
     7
100
AcDbMText
 10
57.27630068874282
 20
12.5
 30
0.0
 40
4.5
 41
0.0
 71
     4
 72
     1
  1
CKAX 03 IAPS\PMetal angled bulkhead housing, stainless steel lever, PG11
  7
CONVERTER_13
 73
     1
 44
0.90036014405762
  0
MTEXT
  5
AB
330
4D
100
AcDbEntity
  8
1
 62
     7
100
AcDbMText
 10
169.6763006887428
 20
16.26063942075598
 30
0.0
 40
3.0
 41
0.0
 71
     5
 72
     1
  1
Scale
  7
CONVERTER_12
 73
     1
 44
1.32052821128451
  0
MTEXT
  5
AC
330
4D
100
AcDbEntity
  8
1
 62
     7
100
AcDbMText
 10
169.6763006887428
 20
10.06063942075605
 30
0.0
 40
4.5
 41
0.0
 71
     5
 72
     1
  1
1:1
  7
CONVERTER_12
 73
     1
 44
1.32052821128451
  0
HATCH
  5
AD
330
4D
100
AcDbEntity
  8
1
  6
Continuous
 62
     7
100
AcDbHatch
 10
0.0
 20
0.0
 30
0.0
210
0.0
220
0.0
230
1.0
  2
SOLID
 70
     1
 71
     1
 91
        1
 92
        1
 93
       16
 72
     2
 10
190.2746002345514
 20
15.73121731203457
 40
0.2649662124752854
 50
30.00000000001921
 51
180.0
 73
     1
 72
     1
 10
190.0096340220761
 20
15.73121731203457
 11
190.0096340220761
 21
12.5
 72
     1
 10
190.0096340220761
 20
12.5
 11
190.0096340220761
 21
10.84758507263291
 72
     2
 10
190.3429673554094
 20
10.84758507263291
 40
0.333333333333286
 50
180.0
 51
360.0
 73
     1
 72
     1
 10
190.6763006887428
 20
10.84758507263291
 11
190.6763006887428
 21
12.5
 72
     1
 10
190.6763006887428
 20
12.5
 11
190.6763006887428
 21
14.23205080756884
 72
     1
 10
190.6763006887428
 20
14.23205080756884
 11
191.5319631214453
 21
12.75
 72
     2
 10
191.6763006887428
 20
12.83333333333326
 40
0.166666666666709
 50
209.9999999999622
 51
330.0000000000231
 73
     1
 72
     1
 10
191.8206382560402
 20
12.75
 11
192.6763006887428
 21
14.23205080756884
 72
     1
 10
192.6763006887428
 20
14.23205080756884
 11
192.6763006887428
 21
12.5
 72
     1
 10
192.6763006887428
 20
12.5
 11
192.6763006887428
 21
9.3082690706018
 72
     2
 10
193.0096340220762
 20
9.3082690706018
 40
0.3333333333333997
 50
180.0
 51
360.0
 73
     1
 72
     1
 10
193.3429673554094
 20
9.3082690706018
 11
193.3429673554094
 21
15.73121731203457
 72
     2
 10
193.0780011429341
 20
15.73121731203457
 40
0.2649662124752865
 50
0.0
 51
149.9999999999716
 73
     1
 72
     1
 10
192.8485336717861
 20
15.86370041827229
 11
191.6763006887428
 21
13.83333333333326
 72
     1
 10
191.6763006887428
 20
13.83333333333326
 11
190.5040677056995
 21
15.86370041827229
 97
       16
330
72
330
93
330
71
330
92
330
70
330
64
330
65
330
9B
330
66
330
67
330
6F
330
91
330
6E
330
6C
330
90
330
6D
 75
     0
 76
     1
 98
        1
 10
0.0
 20
0.0
  0
HATCH
  5
AE
330
4D
100
AcDbEntity
  8
1
  6
Continuous
 62
     7
100
AcDbHatch
 10
0.0
 20
0.0
 30
0.0
210
0.0
220
0.0
230
1.0
  2
SOLID
 70
     1
 71
     1
 91
        1
 92
        1
 93
        7
 72
     1
 10
189.3429673554094
 20
14.92250016016737
 11
189.3429673554094
 21
10.2700211480327
 72
     1
 10
189.3429673554094
 20
10.2700211480327
 11
191.5095415065727
 21
9.0200745223616
 72
     2
 10
191.3429673554094
 20
8.731345993678705
 40
0.3333333333333567
 50
299.9816393688633
 51
479.9816393688463
 73
     0
 72
     1
 10
191.1763932042462
 20
8.44261746499581
 11
189.0098190530831
 21
9.69256409066691
 72
     2
 10
189.3429673554094
 20
10.2700211480327
 40
0.6666666666666003
 50
119.9816393688401
 51
179.9999999999896
 73
     0
 72
     1
 10
188.6763006887428
 20
10.27002114803258
 11
188.6763006887428
 21
14.92250016016737
 72
     2
 10
189.0096340220761
 20
14.92250016016737
 40
0.333333333333286
 50
180.0
 51
360.0
 73
     0
 97
        7
330
74
330
75
330
95
330
76
330
9C
330
73
330
94
 75
     0
 76
     1
 98
        1
 10
0.0
 20
0.0
  0
HATCH
  5
AF
330
4D
100
AcDbEntity
  8
1
  6
Continuous
 62
     7
100
AcDbHatch
 10
0.0
 20
0.0
 30
0.0
210
0.0
220
0.0
230
1.0
  2
SOLID
 70
     1
 71
     1
 91
        1
 92
        1
 93
        5
 72
     1
 10
188.0096340220761
 20
14.15326939093666
 11
188.0096340220761
 21
11.0392519172633
 72
     1
 10
188.0096340220761
 20
11.0392519172633
 11
188.0096340220761
 21
10.84673060906323
 72
     2
 10
187.6763006887428
 20
10.84673060906323
 40
0.3333333333333997
 50
0.0
 51
180.0
 73
     0
 72
     1
 10
187.3429673554094
 20
10.84673060906323
 11
187.3429673554094
 21
14.15326939093666
 72
     2
 10
187.6763006887428
 20
14.15326939093666
 40
0.3333333333333144
 50
180.0
 51
360.0
 73
     0
 97
        5
330
77
330
78
330
97
330
79
330
96
 75
     0
 76
     1
 98
        1
 10
0.0
 20
0.0
  0
HATCH
  5
B0
330
4D
100
AcDbEntity
  8
1
  6
Continuous
 62
     7
100
AcDbHatch
 10
0.0
 20
0.0
 30
0.0
210
0.0
220
0.0
230
1.0
  2
SOLID
 70
     1
 71
     1
 91
        1
 92
        1
 93
       14
 72
     1
 10
195.5097265375796
 20
13.86454086225376
 11
194.6763006887428
 21
14.34536346735194
 72
     1
 10
194.6763006887428
 20
14.34536346735194
 11
194.6763006887428
 21
12.83333333333326
 72
     1
 10
194.6763006887428
 20
12.83333333333326
 11
195.6763006887428
 21
12.83333333333326
 72
     2
 10
195.6763006887428
 20
12.5
 40
0.3333333333333695
 50
270.0
 51
450.0
 73
     0
 72
     1
 10
195.6763006887428
 20
12.16666666666663
 11
194.6763006887428
 21
12.16666666666663
 72
     1
 10
194.6763006887428
 20
12.16666666666663
 11
194.6763006887428
 21
10.65463653264794
 72
     1
 10
194.6763006887428
 20
10.65463653264794
 11
195.5097265375796
 21
11.13545913774624
 72
     2
 10
195.6763006887428
 20
10.84673060906323
 40
0.3333333333333172
 50
240.0183606311635
 51
420.0183606311665
 73
     0
 72
     1
 10
195.8428748399059
 20
10.55800208038033
 11
194.5095415065727
 21
9.788771311149734
 72
     2
 10
194.3429673554094
 20
10.07749983983263
 40
0.3333333333332007
 50
60.01836063113666
 51
180.0
 73
     0
 72
     1
 10
194.0096340220762
 20
10.07749983983263
 11
194.0096340220762
 21
14.92250016016737
 72
     2
 10
194.3429673554094
 20
14.92250016016737
 40
0.3333333333334166
 50
180.0
 51
299.981639368863
 73
     0
 72
     1
 10
194.5095415065727
 20
15.21122868885027
 11
195.8428748399059
 21
14.44199791961944
 72
     2
 10
195.6763006887428
 20
14.15326939093666
 40
0.3333333333333613
 50
299.9816393688436
 51
479.9816393688459
 73
     0
 97
       14
330
7A
330
9F
330
63
330
A0
330
81
330
9A
330
80
330
7F
330
7E
330
99
330
7D
330
7C
330
7B
330
98
 75
     0
 76
     1
 98
        1
 10
0.0
 20
0.0
  0
ENDBLK
  5
4F
330
4D
100
AcDbEntity
  8
0
100
AcDbBlockEnd
  0
BLOCK
  5
52
330
50
100
AcDbEntity
  8
0
100
AcDbBlockBegin
  2
A4
 70
     0
 10
210.0000000000001
 20
0.0
 30
0.0
  3
A4
  1

  0
INSERT
  5
51
330
50
100
AcDbEntity
  8
1
100
AcDbBlockReference
  2
_formato_A4
 10
210.0000000000001
 20
0.0
 30
0.0
  0
ENDBLK
  5
53
330
50
100
AcDbEntity
  8
0
100
AcDbBlockEnd
  0
BLOCK
  5
7A3
330
79B
100
AcDbEntity
  8
0
100
AcDbBlockBegin
  2
*D3
 70
     1
 10
0.0
 20
0.0
 30
0.0
  3
*D3
  1

  0
LINE
  5
79C
330
79B
100
AcDbEntity
  8
1
  6
Continuous
 62
     2
100
AcDbLine
 10
123.8130913371003
 20
144.1616108010904
 30
0.0
 11
123.8130913371003
 21
189.1635614446576
 31
0.0
  0
LINE
  5
79D
330
79B
100
AcDbEntity
  8
1
  6
Continuous
 62
     2
100
AcDbLine
 10
99.3130913371003
 20
189.1635614446576
 30
0.0
 11
124.8130913371003
 21
189.1635614446576
 31
0.0
  0
LINE
  5
79E
330
79B
100
AcDbEntity
  8
1
  6
Continuous
 62
     2
100
AcDbLine
 10
87.3130913371003
 20
144.1616108010904
 30
0.0
 11
124.8130913371003
 21
144.1616108010904
 31
0.0
  0
SOLID
  5
79F
330
79B
100
AcDbEntity
  8
1
 62
     2
100
AcDbTrace
 10
123.4181338443381
 20
147.1616108010904
 30
0.0
 11
124.2080488298625
 21
147.1616108010904
 31
0.0
 12
123.8130913371003
 22
144.1616108010904
 32
0.0
 13
123.8130913371003
 23
144.1616108010904
 33
0.0
  0
SOLID
  5
7A0
330
79B
100
AcDbEntity
  8
1
 62
     2
100
AcDbTrace
 10
124.2080488298625
 20
186.1635614446576
 30
0.0
 11
123.4181338443381
 21
186.1635614446576
 31
0.0
 12
123.8130913371003
 22
189.1635614446576
 32
0.0
 13
123.8130913371003
 23
189.1635614446576
 33
0.0
  0
MTEXT
  5
7A2
330
79B
100
AcDbEntity
  8
1
 62
     4
100
AcDbMText
 10
121.8130913371003
 20
164.412586122874
 30
0.0
 40
3.0
 41
0.0
 71
     7
 72
     1
  1
45
  7
CONVERTER_15
 11
0.0
 21
1.0
 31
0.0
 73
     1
 44
0.60024009603842
  0
ENDBLK
  5
7A4
330
79B
100
AcDbEntity
  8
0
100
AcDbBlockEnd
  0
BLOCK
  5
7AE
330
7A7
100
AcDbEntity
  8
0
100
AcDbBlockBegin
  2
*D4
 70
     1
 10
0.0
 20
0.0
 30
0.0
  3
*D4
  1

  0
LINE
  5
7A8
330
7A7
100
AcDbEntity
  8
1
  6
Continuous
 62
     2
100
AcDbLine
 10
36.81309133710033
 20
92.97762230840874
 30
0.0
 11
36.81309133710033
 21
62.97762230840874
 31
0.0
  0
LINE
  5
7A9
330
7A7
100
AcDbEntity
  8
1
  6
Continuous
 62
     2
100
AcDbLine
 10
67.49809133703144
 20
62.97762230840874
 30
0.0
 11
35.81309133710033
 21
62.97762230840874
 31
0.0
  0
LINE
  5
7AA
330
7A7
100
AcDbEntity
  8
1
  6
Continuous
 62
     2
100
AcDbLine
 10
67.49809133703144
 20
92.97762230840874
 30
0.0
 11
35.81309133710033
 21
92.97762230840874
 31
0.0
  0
SOLID
  5
7AB
330
7A7
100
AcDbEntity
  8
1
 62
     2
100
AcDbTrace
 10
37.20804882986252
 20
89.97762230840874
 30
0.0
 11
36.41813384433814
 21
89.97762230840874
 31
0.0
 12
36.81309133710033
 22
92.97762230840874
 32
0.0
 13
36.81309133710033
 23
92.97762230840874
 33
0.0
  0
SOLID
  5
7AC
330
7A7
100
AcDbEntity
  8
1
 62
     2
100
AcDbTrace
 10
36.41813384433814
 20
65.97762230840874
 30
0.0
 11
37.20804882986252
 21
65.97762230840874
 31
0.0
 12
36.81309133710033
 22
62.97762230840874
 32
0.0
 13
36.81309133710033
 23
62.97762230840874
 33
0.0
  0
MTEXT
  5
7AD
330
7A7
100
AcDbEntity
  8
1
 62
     4
100
AcDbMText
 10
34.81309133710033
 20
75.72762230840874
 30
0.0
 40
3.0
 41
0.0
 71
     7
 72
     1
  1
30
  7
CONVERTER_15
 11
0.0
 21
1.0
 31
0.0
 73
     1
 44
0.60024009603842
  0
ENDBLK
  5
7AF
330
7A7
100
AcDbEntity
  8
0
100
AcDbBlockEnd
  0
BLOCK
  5
7B9
330
7B2
100
AcDbEntity
  8
0
100
AcDbBlockBegin
  2
*D5
 70
     1
 10
0.0
 20
0.0
 30
0.0
  3
*D5
  1

  0
LINE
  5
7B3
330
7B2
100
AcDbEntity
  8
1
  6
Continuous
 62
     2
100
AcDbLine
 10
141.5015601760936
 20
129.1616108010904
 30
0.0
 11
183.5015601760936
 21
129.1616108010904
 31
0.0
  0
LINE
  5
7B4
330
7B2
100
AcDbEntity
  8
1
  6
Continuous
 62
     2
100
AcDbLine
 10
183.5015601760936
 20
143.6616108010904
 30
0.0
 11
183.5015601760936
 21
128.1616108010904
 31
0.0
  0
LINE
  5
7B5
330
7B2
100
AcDbEntity
  8
1
  6
Continuous
 62
     2
100
AcDbLine
 10
141.5015601760936
 20
143.6616108010904
 30
0.0
 11
141.5015601760936
 21
128.1616108010904
 31
0.0
  0
SOLID
  5
7B6
330
7B2
100
AcDbEntity
  8
1
 62
     2
100
AcDbTrace
 10
144.5015601760936
 20
129.5565682938526
 30
0.0
 11
144.5015601760936
 21
128.7666533083282
 31
0.0
 12
141.5015601760936
 22
129.1616108010904
 32
0.0
 13
141.5015601760936
 23
129.1616108010904
 33
0.0
  0
SOLID
  5
7B7
330
7B2
100
AcDbEntity
  8
1
 62
     2
100
AcDbTrace
 10
180.5015601760936
 20
128.7666533083282
 30
0.0
 11
180.5015601760936
 21
129.5565682938526
 31
0.0
 12
183.5015601760936
 22
129.1616108010904
 32
0.0
 13
183.5015601760936
 23
129.1616108010904
 33
0.0
  0
MTEXT
  5
7B8
330
7B2
100
AcDbEntity
  8
1
 62
     4
100
AcDbMText
 10
160.2515601760936
 20
131.1616108010904
 30
0.0
 40
3.0
 41
0.0
 71
     7
 72
     1
  1
42
  7
CONVERTER_15
 11
0.9999999999970619
 21
2.424068405545306E-6
 31
0.0
 73
     1
 44
0.60024009603842
  0
ENDBLK
  5
7BA
330
7B2
100
AcDbEntity
  8
0
100
AcDbBlockEnd
  0
BLOCK
  5
7C4
330
7BD
100
AcDbEntity
  8
0
100
AcDbBlockBegin
  2
*D6
 70
     1
 10
0.0
 20
0.0
 30
0.0
  3
*D6
  1

  0
LINE
  5
7BE
330
7BD
100
AcDbEntity
  8
1
  6
Continuous
 62
     2
100
AcDbLine
 10
37.49825347949758
 20
218.826613746545
 30
0.0
 11
59.49825347949758
 21
218.826613746545
 31
0.0
  0
LINE
  5
7BF
330
7BD
100
AcDbEntity
  8
1
  6
Continuous
 62
     2
100
AcDbLine
 10
59.49825347949758
 20
237.326613746545
 30
0.0
 11
59.49825347949758
 21
217.826613746545
 31
0.0
  0
LINE
  5
7C0
330
7BD
100
AcDbEntity
  8
1
  6
Continuous
 62
     2
100
AcDbLine
 10
37.49825347949758
 20
237.326613746545
 30
0.0
 11
37.49825347949758
 21
217.826613746545
 31
0.0
  0
SOLID
  5
7C1
330
7BD
100
AcDbEntity
  8
1
 62
     2
100
AcDbTrace
 10
40.49825347949758
 20
219.2215712393072
 30
0.0
 11
40.49825347949758
 21
218.4316562537828
 31
0.0
 12
37.49825347949758
 22
218.826613746545
 32
0.0
 13
37.49825347949758
 23
218.826613746545
 33
0.0
  0
SOLID
  5
7C2
330
7BD
100
AcDbEntity
  8
1
 62
     2
100
AcDbTrace
 10
56.49825347949758
 20
218.4316562537828
 30
0.0
 11
56.49825347949758
 21
219.2215712393072
 31
0.0
 12
59.49825347949758
 22
218.826613746545
 32
0.0
 13
59.49825347949758
 23
218.826613746545
 33
0.0
  0
MTEXT
  5
7C3
330
7BD
100
AcDbEntity
  8
1
 62
     4
100
AcDbMText
 10
46.24825347949758
 20
220.826613746545
 30
0.0
 40
3.0
 41
0.0
 71
     7
 72
     1
  1
22
  7
CONVERTER_15
 11
0.9999999999970619
 21
2.424068405545306E-6
 31
0.0
 73
     1
 44
0.60024009603842
  0
ENDBLK
  5
7C5
330
7BD
100
AcDbEntity
  8
0
100
AcDbBlockEnd
  0
BLOCK
  5
7CF
330
7C8
100
AcDbEntity
  8
0
100
AcDbBlockBegin
  2
*D7
 70
     1
 10
0.0
 20
0.0
 30
0.0
  3
*D7
  1

  0
LINE
  5
7C9
330
7C8
100
AcDbEntity
  8
1
  6
Continuous
 62
     2
100
AcDbLine
 10
74.49825347949758
 20
237.826613746545
 30
0.0
 11
74.49825347949758
 21
259.826613746545
 31
0.0
  0
LINE
  5
7CA
330
7C8
100
AcDbEntity
  8
1
  6
Continuous
 62
     2
100
AcDbLine
 10
59.99825347949758
 20
259.826613746545
 30
0.0
 11
75.49825347949758
 21
259.826613746545
 31
0.0
  0
LINE
  5
7CB
330
7C8
100
AcDbEntity
  8
1
  6
Continuous
 62
     2
100
AcDbLine
 10
59.99825347949758
 20
237.826613746545
 30
0.0
 11
75.49825347949758
 21
237.826613746545
 31
0.0
  0
SOLID
  5
7CC
330
7C8
100
AcDbEntity
  8
1
 62
     2
100
AcDbTrace
 10
74.10329598673539
 20
240.826613746545
 30
0.0
 11
74.89321097225977
 21
240.826613746545
 31
0.0
 12
74.49825347949758
 22
237.826613746545
 32
0.0
 13
74.49825347949758
 23
237.826613746545
 33
0.0
  0
SOLID
  5
7CD
330
7C8
100
AcDbEntity
  8
1
 62
     2
100
AcDbTrace
 10
74.89321097225977
 20
256.826613746545
 30
0.0
 11
74.10329598673539
 21
256.826613746545
 31
0.0
 12
74.49825347949758
 22
259.826613746545
 32
0.0
 13
74.49825347949758
 23
259.826613746545
 33
0.0
  0
MTEXT
  5
7CE
330
7C8
100
AcDbEntity
  8
1
 62
     4
100
AcDbMText
 10
72.49825347949758
 20
246.576613746545
 30
0.0
 40
3.0
 41
0.0
 71
     7
 72
     1
  1
22
  7
CONVERTER_15
 11
0.0
 21
1.0
 31
0.0
 73
     1
 44
0.60024009603842
  0
ENDBLK
  5
7D0
330
7C8
100
AcDbEntity
  8
0
100
AcDbBlockEnd
  0
BLOCK
  5
7DA
330
7D3
100
AcDbEntity
  8
0
100
AcDbBlockBegin
  2
*D8
 70
     1
 10
0.0
 20
0.0
 30
0.0
  3
*D8
  1

  0
LINE
  5
7D4
330
7D3
100
AcDbEntity
  8
1
  6
Continuous
 62
     2
100
AcDbLine
 10
84.49825347949758
 20
263.826613746545
 30
0.0
 11
84.49825347949758
 21
233.826613746545
 31
0.0
  0
LINE
  5
7D5
330
7D3
100
AcDbEntity
  8
1
  6
Continuous
 62
     2
100
AcDbLine
 10
52.81325347949763
 20
233.826613746545
 30
0.0
 11
85.49825347949758
 21
233.826613746545
 31
0.0
  0
LINE
  5
7D6
330
7D3
100
AcDbEntity
  8
1
  6
Continuous
 62
     2
100
AcDbLine
 10
52.81325347949763
 20
263.826613746545
 30
0.0
 11
85.49825347949758
 21
263.826613746545
 31
0.0
  0
SOLID
  5
7D7
330
7D3
100
AcDbEntity
  8
1
 62
     2
100
AcDbTrace
 10
84.89321097225977
 20
260.826613746545
 30
0.0
 11
84.10329598673539
 21
260.826613746545
 31
0.0
 12
84.49825347949758
 22
263.826613746545
 32
0.0
 13
84.49825347949758
 23
263.826613746545
 33
0.0
  0
SOLID
  5
7D8
330
7D3
100
AcDbEntity
  8
1
 62
     2
100
AcDbTrace
 10
84.10329598673539
 20
236.826613746545
 30
0.0
 11
84.89321097225977
 21
236.826613746545
 31
0.0
 12
84.49825347949758
 22
233.826613746545
 32
0.0
 13
84.49825347949758
 23
233.826613746545
 33
0.0
  0
MTEXT
  5
7D9
330
7D3
100
AcDbEntity
  8
1
 62
     4
100
AcDbMText
 10
82.49825347949758
 20
246.576613746545
 30
0.0
 40
3.0
 41
0.0
 71
     7
 72
     1
  1
30
  7
CONVERTER_15
 11
0.0
 21
1.0
 31
0.0
 73
     1
 44
0.60024009603842
  0
ENDBLK
  5
7DB
330
7D3
100
AcDbEntity
  8
0
100
AcDbBlockEnd
  0
BLOCK
  5
7E5
330
7DE
100
AcDbEntity
  8
0
100
AcDbBlockBegin
  2
*D9
 70
     1
 10
0.0
 20
0.0
 30
0.0
  3
*D9
  1

  0
LINE
  5
7DF
330
7DE
100
AcDbEntity
  8
1
  6
Continuous
 62
     2
100
AcDbLine
 10
46.81309133710033
 20
129.1616108010904
 30
0.0
 11
56.81309133710033
 21
129.1616108010904
 31
0.0
  0
LINE
  5
7E0
330
7DE
100
AcDbEntity
  8
1
  6
Continuous
 62
     2
100
AcDbLine
 10
56.81309133710033
 20
143.6616108010904
 30
0.0
 11
56.81309133710033
 21
128.1616108010904
 31
0.0
  0
LINE
  5
7E1
330
7DE
100
AcDbEntity
  8
1
  6
Continuous
 62
     2
100
AcDbLine
 10
46.81309133710033
 20
148.1616108010904
 30
0.0
 11
46.81309133710033
 21
128.1616108010904
 31
0.0
  0
SOLID
  5
7E2
330
7DE
100
AcDbEntity
  8
1
 62
     2
100
AcDbTrace
 10
49.81309133710033
 20
129.5565682938526
 30
0.0
 11
49.81309133710033
 21
128.7666533083282
 31
0.0
 12
46.81309133710033
 22
129.1616108010904
 32
0.0
 13
46.81309133710033
 23
129.1616108010904
 33
0.0
  0
SOLID
  5
7E3
330
7DE
100
AcDbEntity
  8
1
 62
     2
100
AcDbTrace
 10
53.81309133710033
 20
128.7666533083282
 30
0.0
 11
53.81309133710033
 21
129.5565682938526
 31
0.0
 12
56.81309133710033
 22
129.1616108010904
 32
0.0
 13
56.81309133710033
 23
129.1616108010904
 33
0.0
  0
MTEXT
  5
7E4
330
7DE
100
AcDbEntity
  8
1
 62
     4
100
AcDbMText
 10
50.01309133710033
 20
131.1616108010904
 30
0.0
 40
3.0
 41
0.0
 71
     7
 72
     1
  1
10
  7
CONVERTER_15
 11
0.9999999999970619
 21
2.424068405545306E-6
 31
0.0
 73
     1
 44
0.60024009603842
  0
ENDBLK
  5
7E6
330
7DE
100
AcDbEntity
  8
0
100
AcDbBlockEnd
  0
BLOCK
  5
7F0
330
7E9
100
AcDbEntity
  8
0
100
AcDbBlockBegin
  2
*D10
 70
     1
 10
0.0
 20
0.0
 30
0.0
  3
*D10
  1

  0
LINE
  5
7EA
330
7E9
100
AcDbEntity
  8
1
  6
Continuous
 62
     2
100
AcDbLine
 10
56.81309133710033
 20
129.1616108010904
 30
0.0
 11
103.8130913371003
 21
129.1616108010904
 31
0.0
  0
LINE
  5
7EB
330
7E9
100
AcDbEntity
  8
1
  6
Continuous
 62
     2
100
AcDbLine
 10
103.8130913371003
 20
148.1616108010904
 30
0.0
 11
103.8130913371003
 21
128.1616108010904
 31
0.0
  0
LINE
  5
7EC
330
7E9
100
AcDbEntity
  8
1
  6
Continuous
 62
     2
100
AcDbLine
 10
56.81309133710033
 20
143.6616108010904
 30
0.0
 11
56.81309133710033
 21
128.1616108010904
 31
0.0
  0
SOLID
  5
7ED
330
7E9
100
AcDbEntity
  8
1
 62
     2
100
AcDbTrace
 10
59.81309133710033
 20
129.5565682938526
 30
0.0
 11
59.81309133710033
 21
128.7666533083282
 31
0.0
 12
56.81309133710033
 22
129.1616108010904
 32
0.0
 13
56.81309133710033
 23
129.1616108010904
 33
0.0
  0
SOLID
  5
7EE
330
7E9
100
AcDbEntity
  8
1
 62
     2
100
AcDbTrace
 10
100.8130913371003
 20
128.7666533083282
 30
0.0
 11
100.8130913371003
 21
129.5565682938526
 31
0.0
 12
103.8130913371003
 22
129.1616108010904
 32
0.0
 13
103.8130913371003
 23
129.1616108010904
 33
0.0
  0
MTEXT
  5
7EF
330
7E9
100
AcDbEntity
  8
1
 62
     4
100
AcDbMText
 10
78.06309133710033
 20
131.1616108010904
 30
0.0
 40
3.0
 41
0.0
 71
     7
 72
     1
  1
47
  7
CONVERTER_15
 11
0.9999999999970619
 21
2.424068405545306E-6
 31
0.0
 73
     1
 44
0.60024009603842
  0
ENDBLK
  5
7F1
330
7E9
100
AcDbEntity
  8
0
100
AcDbBlockEnd
  0
BLOCK
  5
7FA
330
7F4
100
AcDbEntity
  8
0
100
AcDbBlockBegin
  2
*D11
 70
     1
 10
0.0
 20
0.0
 30
0.0
  3
*D11
  1

  0
LINE
  5
7F5
330
7F4
100
AcDbEntity
  8
1
  6
Continuous
 62
     2
100
AcDbLine
 10
56.17263570696196
 20
268.3299458361629
 30
0.0
 11
70.02263570696198
 21
268.3299458361629
 31
0.0
  0
LINE
  5
7F6
330
7F4
100
AcDbEntity
  8
1
  6
Continuous
 62
     2
100
AcDbLine
 10
43.19403539281973
 20
260.7140953949589
 30
0.0
 11
56.17263570696196
 21
268.3299458361629
 31
0.0
  0
SOLID
  5
7F7
330
7F4
100
AcDbEntity
  8
1
 62
     2
100
AcDbTrace
 10
52.30887163538918
 20
266.5206220410902
 30
0.0
 11
52.70864804004567
 21
265.8393405202518
 31
0.0
 12
49.92133638080139
 22
264.661679645751
 32
0.0
 13
49.92133638080139
 23
264.661679645751
 33
0.0
  0
SOLID
  5
7F8
330
7F4
100
AcDbEntity
  8
1
 62
     2
100
AcDbTrace
 10
44.68763532360597
 20
261.1326054519998
 30
0.0
 11
44.28785891894949
 21
261.8138869728382
 31
0.0
 12
47.07517057819376
 22
262.9915478473389
 32
0.0
 13
47.07517057819376
 23
262.9915478473389
 33
0.0
  0
MTEXT
  5
7F9
330
7F4
100
AcDbEntity
  8
1
 62
     4
100
AcDbMText
 10
62.01263570696919
 20
270.6299398729547
 30
0.0
 40
3.0
 41
0.0
 71
     7
 72
     1
  1
\C4;\U+00f8\C4;3,3
  7
CONVERTER_15
 11
0.9999999999970619
 21
2.424068405545306E-6
 31
0.0
 73
     1
 44
0.60024009603842
  0
ENDBLK
  5
7FB
330
7F4
100
AcDbEntity
  8
0
100
AcDbBlockEnd
  0
BLOCK
  5
803
330
7FD
100
AcDbEntity
  8
0
100
AcDbBlockBegin
  2
*D12
 70
     1
 10
0.0
 20
0.0
 30
0.0
  3
*D12
  1

  0
LINE
  5
7FE
330
7FD
100
AcDbEntity
  8
1
  6
Continuous
 62
     2
100
AcDbLine
 10
59.56730662079229
 20
103.2402246671262
 30
0.0
 11
45.71730662079227
 21
103.2402246671262
 31
0.0
  0
LINE
  5
7FF
330
7FD
100
AcDbEntity
  8
1
  6
Continuous
 62
     2
100
AcDbLine
 10
76.52669570138568
 20
89.02737751898864
 30
0.0
 11
59.56730662079229
 21
103.2402246671262
 31
0.0
  0
SOLID
  5
800
330
7FD
100
AcDbEntity
  8
1
 62
     2
100
AcDbTrace
 10
67.99545896758859
 20
95.6616816432355
 30
0.0
 11
68.50283417988982
 21
96.26710387465607
 31
0.0
 12
70.54846577586324
 22
94.0374440811799
 32
0.0
 13
70.54846577586324
 23
94.0374440811799
 33
0.0
  0
SOLID
  5
801
330
7FD
100
AcDbEntity
  8
1
 62
     2
100
AcDbTrace
 10
75.63072370647428
 20
90.29356297358187
 30
0.0
 11
75.12334849417306
 21
89.6881407421613
 31
0.0
 12
73.07771689819964
 22
91.91780053563747
 32
0.0
 13
73.07771689819964
 23
91.91780053563747
 33
0.0
  0
MTEXT
  5
802
330
7FD
100
AcDbEntity
  8
1
 62
     4
100
AcDbMText
 10
46.55730662079951
 20
105.5402187039179
 30
0.0
 40
3.0
 41
0.0
 71
     7
 72
     1
  1
\C4;\U+00f8\C4;3,3
  7
CONVERTER_15
 11
0.9999999999970619
 21
2.424068405545306E-6
 31
0.0
 73
     1
 44
0.60024009603842
  0
ENDBLK
  5
804
330
7FD
100
AcDbEntity
  8
0
100
AcDbBlockEnd
  0
BLOCK
  5
80D
330
806
100
AcDbEntity
  8
0
100
AcDbBlockBegin
  2
*D13
 70
     1
 10
0.0
 20
0.0
 30
0.0
  3
*D13
  1

  0
LINE
  5
807
330
806
100
AcDbEntity
  8
1
  6
Continuous
 62
     2
100
AcDbLine
 10
171.4665601760854
 20
195.1766086199894
 30
0.0
 11
153.5365601760854
 21
195.1766086199894
 31
0.0
  0
LINE
  5
808
330
806
100
AcDbEntity
  8
1
  6
Continuous
 62
     2
100
AcDbLine
 10
153.5365601760854
 20
161.1616108010904
 30
0.0
 11
153.5365601760854
 21
196.1766086199894
 31
0.0
  0
LINE
  5
809
330
806
100
AcDbEntity
  8
1
  6
Continuous
 62
     2
100
AcDbLine
 10
171.4665601760854
 20
161.1616108010904
 30
0.0
 11
171.4665601760854
 21
196.1766086199894
 31
0.0
  0
SOLID
  5
80A
330
806
100
AcDbEntity
  8
1
 62
     2
100
AcDbTrace
 10
168.4665601760854
 20
194.7816511272272
 30
0.0
 11
168.4665601760854
 21
195.5715661127516
 31
0.0
 12
171.4665601760854
 22
195.1766086199894
 32
0.0
 13
171.4665601760854
 23
195.1766086199894
 33
0.0
  0
SOLID
  5
80B
330
806
100
AcDbEntity
  8
1
 62
     2
100
AcDbTrace
 10
156.5365601760854
 20
195.5715661127516
 30
0.0
 11
156.5365601760854
 21
194.7816511272272
 31
0.0
 12
153.5365601760854
 22
195.1766086199894
 32
0.0
 13
153.5365601760854
 23
195.1766086199894
 33
0.0
  0
MTEXT
  5
80C
330
806
100
AcDbEntity
  8
1
 62
     4
100
AcDbMText
 10
158.3015601760854
 20
197.1766086199894
 30
0.0
 40
3.0
 41
0.0
 71
     7
 72
     1
  1
PG11
  7
CONVERTER_15
 11
0.9999999999970619
 21
2.424068405545306E-6
 31
0.0
 73
     1
 44
0.60024009603842
  0
ENDBLK
  5
80E
330
806
100
AcDbEntity
  8
0
100
AcDbBlockEnd
  0
ENDSEC
  0
SECTION
  2
ENTITIES
  0
INSERT
  5
54
330
1F
100
AcDbEntity
  8
0
100
AcDbBlockReference
  2
A4
 10
210.0000000000001
 20
0.0
 30
0.0
  0
POINT
  5
B1
330
1F
100
AcDbEntity
  8
Bemaßungen_TC_020513_DIN_
 62
     7
100
AcDbPoint
 10
56.81309133710033
 20
145.9116108010904
 30
0.0
  0
POINT
  5
B2
330
1F
100
AcDbEntity
  8
Bemaßungen_TC_020513_DIN_
 62
     7
100
AcDbPoint
 10
103.8130913371003
 20
151.1616108010894
 30
0.0
  0
POINT
  5
B3
330
1F
100
AcDbEntity
  8
Bemaßungen_TC_020513_DIN_
 62
     7
100
AcDbPoint
 10
56.81309133710033
 20
145.9116108010904
 30
0.0
  0
POINT
  5
B4
330
1F
100
AcDbEntity
  8
Bemaßungen_TC_020513_DIN_
 62
     7
100
AcDbPoint
 10
46.81309133710033
 20
148.6616108010904
 30
0.0
  0
POINT
  5
B5
330
1F
100
AcDbEntity
  8
Bemaßungen_TC_020513_DIN_
 62
     7
100
AcDbPoint
 10
141.5015601760936
 20
145.9116108010904
 30
0.0
  0
POINT
  5
B6
330
1F
100
AcDbEntity
  8
Bemaßungen_TC_020513_DIN_
 62
     7
100
AcDbPoint
 10
183.5015601760936
 20
145.9116108010904
 30
0.0
  0
POINT
  5
B7
330
1F
100
AcDbEntity
  8
Bemaßungen_TC_020513_DIN_
 62
     7
100
AcDbPoint
 10
85.18745987897296
 20
144.1616108010904
 30
0.0
  0
POINT
  5
B8
330
1F
100
AcDbEntity
  8
Bemaßungen_TC_020513_DIN_
 62
     7
100
AcDbPoint
 10
59.49825347949758
 20
259.8266137465449
 30
0.0
  0
POINT
  5
B9
330
1F
100
AcDbEntity
  8
Bemaßungen_TC_020513_DIN_
 62
     7
100
AcDbPoint
 10
59.49825347949758
 20
237.826613746545
 30
0.0
  0
POINT
  5
BA
330
1F
100
AcDbEntity
  8
Bemaßungen_TC_020513_DIN_
 62
     7
100
AcDbPoint
 10
59.49825347949758
 20
237.826613746545
 30
0.0
  0
POINT
  5
BB
330
1F
100
AcDbEntity
  8
Bemaßungen_TC_020513_DIN_
 62
     7
100
AcDbPoint
 10
37.49825347949758
 20
237.826613746545
 30
0.0
  0
LINE
  5
BC
330
1F
100
AcDbEntity
  8
1
  6
DOT_CENTER
 62
     2
100
AcDbLine
 10
97.62809133710039
 20
77.97762230841573
 30
0.0
 11
89.99809133710016
 21
77.97762230841573
 31
0.0
  0
LINE
  5
BD
330
1F
100
AcDbEntity
  8
1
  6
DOT_CENTER
 62
     2
100
AcDbLine
 10
93.81309133710022
 20
81.79262230841584
 30
0.0
 11
93.81309133710022
 21
74.16262230841565
 31
0.0
  0
LINE
  5
BE
330
1F
100
AcDbEntity
  8
Sichtbare_Kanten_TC_020513_DIN_
  6
Continuous
 62
     7
100
AcDbLine
 10
84.68371926928955
 20
63.23599211249902
 30
0.0
 11
73.18745987890395
 21
57.31095564174166
 31
0.0
  0
LINE
  5
BF
330
1F
100
AcDbEntity
  8
Sichtbare_Kanten_TC_020513_DIN_
  6
Continuous
 62
     7
100
AcDbLine
 10
84.60857031985665
 20
64.32226123047835
 30
0.0
 11
72.72933703161311
 21
58.19984453063054
 31
0.0
  0
LINE
  5
C0
330
1F
100
AcDbEntity
  8
Sichtbare_Kanten_TC_020513_DIN_
  6
Continuous
 62
     7
100
AcDbLine
 10
73.18745987890395
 20
98.64428897507534
 30
0.0
 11
84.68371926928785
 21
92.71925250431852
 31
0.0
  0
LINE
  5
C1
330
1F
100
AcDbEntity
  8
Sichtbare_Kanten_TC_020513_DIN_
  6
Continuous
 62
     7
100
AcDbLine
 10
72.72933703161311
 20
97.75540008618634
 30
0.0
 11
84.60857031985665
 21
91.63298338633842
 31
0.0
  0
LINE
  5
C2
330
1F
100
AcDbEntity
  8
Sichtbare_Kanten_TC_020513_DIN_
  6
Continuous
 62
     7
100
AcDbLine
 10
84.60857031985665
 20
89.97762230841505
 30
0.0
 11
57.68809133703144
 21
89.97762230841494
 31
0.0
  0
LINE
  5
C3
330
1F
100
AcDbEntity
  8
Sichtbare_Kanten_TC_020513_DIN_
  6
Continuous
 62
     7
100
AcDbLine
 10
57.68809133703144
 20
65.97762230841505
 30
0.0
 11
84.60857031985665
 21
65.97762230841496
 31
0.0
  0
LINE
  5
C4
330
1F
100
AcDbEntity
  8
Sichtbare_Kanten_TC_020513_DIN_
  6
Continuous
 62
     7
100
AcDbLine
 10
57.68809133710033
 20
172.6616108010904
 30
0.0
 11
85.31494650268962
 21
172.6616108010904
 31
0.0
  0
LINE
  5
C5
330
1F
100
AcDbEntity
  8
Sichtbare_Kanten_TC_020513_DIN_
  6
Continuous
 62
     7
100
AcDbLine
 10
56.81309133710033
 20
147.6616108010904
 30
0.0
 11
58.43872279522776
 21
147.6616108010904
 31
0.0
  0
LINE
  5
C6
330
1F
100
AcDbEntity
  8
Sichtbare_Kanten_TC_020513_DIN_
  6
Continuous
 62
     7
100
AcDbLine
 10
70.4387227952277
 20
147.6616108010904
 30
0.0
 11
58.43872279522776
 21
147.6616108010904
 31
0.0
  0
LINE
  5
C7
330
1F
100
AcDbEntity
  8
Sichtbare_Kanten_TC_020513_DIN_
  6
Continuous
 62
     7
100
AcDbLine
 10
70.4387227952277
 20
147.6616108010904
 30
0.0
 11
73.18745987897296
 21
147.6616108010904
 31
0.0
  0
LINE
  5
C8
330
1F
100
AcDbEntity
  8
Sichtbare_Kanten_TC_020513_DIN_
  6
Continuous
 62
     7
100
AcDbLine
 10
85.18745987897296
 20
147.6616108010904
 30
0.0
 11
73.18745987897296
 21
147.6616108010904
 31
0.0
  0
LINE
  5
C9
330
1F
100
AcDbEntity
  8
Sichtbare_Kanten_TC_020513_DIN_
  6
Continuous
 62
     7
100
AcDbLine
 10
85.18745987897296
 20
147.6616108010904
 30
0.0
 11
86.81309133710033
 21
147.6616108010904
 31
0.0
  0
LINE
  5
CA
330
1F
100
AcDbEntity
  8
Sichtbare_Kanten_TC_020513_DIN_
  6
Continuous
 62
     7
100
AcDbLine
 10
58.43872279522776
 20
144.1616108010904
 30
0.0
 11
70.4387227952277
 21
144.1616108010904
 31
0.0
  0
LINE
  5
CB
330
1F
100
AcDbEntity
  8
Sichtbare_Kanten_TC_020513_DIN_
  6
Continuous
 62
     7
100
AcDbLine
 10
73.18745987897296
 20
144.1616108010904
 30
0.0
 11
70.4387227952277
 21
144.1616108010904
 31
0.0
  0
LINE
  5
CC
330
1F
100
AcDbEntity
  8
Sichtbare_Kanten_TC_020513_DIN_
  6
Continuous
 62
     7
100
AcDbLine
 10
73.18745987897296
 20
144.1616108010904
 30
0.0
 11
85.18745987897296
 21
144.1616108010904
 31
0.0
  0
LINE
  5
CD
330
1F
100
AcDbEntity
  8
Sichtbare_Kanten_TC_020513_DIN_
  6
Continuous
 62
     7
100
AcDbLine
 10
86.81309133710033
 20
144.1616108010904
 30
0.0
 11
85.18745987897296
 21
144.1616108010904
 31
0.0
  0
LINE
  5
CE
330
1F
100
AcDbEntity
  8
Sichtbare_Kanten_TC_020513_DIN_
  6
Continuous
 62
     7
100
AcDbLine
 10
86.81309133710033
 20
147.6616108010904
 30
0.0
 11
86.81309133710033
 21
144.1616108010904
 31
0.0
  0
LINE
  5
CF
330
1F
100
AcDbEntity
  8
Sichtbare_Kanten_TC_020513_DIN_
  6
Continuous
 62
     7
100
AcDbLine
 10
56.81309133710033
 20
147.6616108010904
 30
0.0
 11
56.81309133710033
 21
144.1616108010904
 31
0.0
  0
LINE
  5
D0
330
1F
100
AcDbEntity
  8
Sichtbare_Kanten_TC_020513_DIN_
  6
Continuous
 62
     7
100
AcDbLine
 10
58.43872279522776
 20
144.1616108010904
 30
0.0
 11
56.81309133710033
 21
144.1616108010904
 31
0.0
  0
LINE
  5
D1
330
1F
100
AcDbEntity
  8
Sichtbare_Kanten_TC_020513_DIN_
  6
Continuous
 62
     7
100
AcDbLine
 10
46.81309133710033
 20
172.6616108010904
 30
0.0
 11
46.81309133710033
 21
148.6616108010904
 31
0.0
  0
LINE
  5
D2
330
1F
100
AcDbEntity
  8
Sichtbare_Kanten_TC_020513_DIN_
  6
Continuous
 62
     7
100
AcDbLine
 10
57.68809133710033
 20
148.6616108010904
 30
0.0
 11
46.81309133710033
 21
148.6616108010904
 31
0.0
  0
LINE
  5
D3
330
1F
100
AcDbEntity
  8
Sichtbare_Kanten_TC_020513_DIN_
  6
Continuous
 62
     7
100
AcDbLine
 10
57.68809133710033
 20
172.6616108010904
 30
0.0
 11
46.81309133710033
 21
172.6616108010904
 31
0.0
  0
LINE
  5
D4
330
1F
100
AcDbEntity
  8
Sichtbare_Kanten_TC_020513_DIN_
  6
Continuous
 62
     7
100
AcDbLine
 10
57.68809133710033
 20
170.1616108010904
 30
0.0
 11
57.68809133710033
 21
160.6616108010904
 31
0.0
  0
LINE
  5
D5
330
1F
100
AcDbEntity
  8
Sichtbare_Kanten_TC_020513_DIN_
  6
Continuous
 62
     7
100
AcDbLine
 10
57.68809133710033
 20
170.1616108010904
 30
0.0
 11
57.68809133710033
 21
172.6616108010904
 31
0.0
  0
LINE
  5
D6
330
1F
100
AcDbEntity
  8
Sichtbare_Kanten_TC_020513_DIN_
  6
Continuous
 62
     7
100
AcDbLine
 10
57.68809133710033
 20
160.6616108010904
 30
0.0
 11
57.68809133710033
 21
147.6616108010904
 31
0.0
  0
LINE
  5
D7
330
1F
100
AcDbEntity
  8
Sichtbare_Kanten_TC_020513_DIN_
  6
Continuous
 62
     7
100
AcDbLine
 10
60.17138133535639
 20
149.1616108010904
 30
0.0
 11
71.81309133710033
 21
149.1616108010904
 31
0.0
  0
LINE
  5
D8
330
1F
100
AcDbEntity
  8
Sichtbare_Kanten_TC_020513_DIN_
  6
Continuous
 62
     7
100
AcDbLine
 10
83.45480133884428
 20
149.1616108010904
 30
0.0
 11
71.81309133710033
 21
149.1616108010904
 31
0.0
  0
LINE
  5
D9
330
1F
100
AcDbEntity
  8
Sichtbare_Kanten_TC_020513_DIN_
  6
Continuous
 62
     7
100
AcDbLine
 10
103.8130913371003
 20
155.7626313155241
 30
0.0
 11
103.8130913371003
 21
148.6616108010904
 31
0.0
  0
LINE
  5
DA
330
1F
100
AcDbEntity
  8
Sichtbare_Kanten_TC_020513_DIN_
  6
Continuous
 62
     7
100
AcDbLine
 10
85.81309133710033
 20
148.6616108010904
 30
0.0
 11
103.8130913371003
 21
148.6616108010904
 31
0.0
  0
LINE
  5
DB
330
1F
100
AcDbEntity
  8
Sichtbare_Kanten_TC_020513_DIN_
  6
Continuous
 62
     7
100
AcDbLine
 10
71.54337993204274
 20
79.72762230841573
 30
0.0
 11
68.08280274202002
 21
79.72762230841573
 31
0.0
  0
LINE
  5
DC
330
1F
100
AcDbEntity
  8
Sichtbare_Kanten_TC_020513_DIN_
  6
Continuous
 62
     7
100
AcDbLine
 10
71.18300325163182
 20
81.10255292178815
 30
0.0
 11
71.7599263285548
 21
80.10255292178815
 31
0.0
  0
LINE
  5
DD
330
1F
100
AcDbEntity
  8
Sichtbare_Kanten_TC_020513_DIN_
  6
Continuous
 62
     7
100
AcDbLine
 10
71.11052741243111
 20
80.22762230841573
 30
0.0
 11
70.74991045860747
 21
80.85269169504335
 31
0.0
  0
LINE
  5
DE
330
1F
100
AcDbEntity
  8
Sichtbare_Kanten_TC_020513_DIN_
  6
Continuous
 62
     7
100
AcDbLine
 10
70.06309133703144
 20
80.22762230841573
 30
0.0
 11
71.11052741243111
 21
80.22762230841573
 31
0.0
  0
LINE
  5
DF
330
1F
100
AcDbEntity
  8
Sichtbare_Kanten_TC_020513_DIN_
  6
Continuous
 62
     7
100
AcDbLine
 10
70.06309133703144
 20
80.97762230841573
 30
0.0
 11
70.06309133703144
 21
80.22762230841573
 31
0.0
  0
LINE
  5
E0
330
1F
100
AcDbEntity
  8
Sichtbare_Kanten_TC_020513_DIN_
  6
Continuous
 62
     7
100
AcDbLine
 10
69.56309133703144
 20
80.22762230841573
 30
0.0
 11
69.56309133703144
 21
80.97762230841573
 31
0.0
  0
LINE
  5
E1
330
1F
100
AcDbEntity
  8
Sichtbare_Kanten_TC_020513_DIN_
  6
Continuous
 62
     7
100
AcDbLine
 10
68.51565526163165
 20
80.22762230841573
 30
0.0
 11
69.56309133703144
 21
80.22762230841573
 31
0.0
  0
LINE
  5
E2
330
1F
100
AcDbEntity
  8
Sichtbare_Kanten_TC_020513_DIN_
  6
Continuous
 62
     7
100
AcDbLine
 10
68.87627221545529
 20
80.85269169504335
 30
0.0
 11
68.51565526163165
 21
80.22762230841573
 31
0.0
  0
LINE
  5
E3
330
1F
100
AcDbEntity
  8
Sichtbare_Kanten_TC_020513_DIN_
  6
Continuous
 62
     7
100
AcDbLine
 10
67.86625634550796
 20
80.10255292178815
 30
0.0
 11
68.44317942243106
 21
81.10255292178815
 31
0.0
  0
LINE
  5
E4
330
1F
100
AcDbEntity
  8
Sichtbare_Kanten_TC_020513_DIN_
  6
Continuous
 62
     7
100
AcDbLine
 10
70.93761070127357
 20
74.67762230841575
 30
0.0
 11
68.6885719727893
 21
74.67762230841575
 31
0.0
  0
LINE
  5
E5
330
1F
100
AcDbEntity
  8
Sichtbare_Kanten_TC_020513_DIN_
  6
Continuous
 62
     7
100
AcDbLine
 10
68.6885719727893
 20
75.17762230841575
 30
0.0
 11
70.93761070127357
 21
75.17762230841575
 31
0.0
  0
LINE
  5
E6
330
1F
100
AcDbEntity
  8
Sichtbare_Kanten_TC_020513_DIN_
  6
Continuous
 62
     7
100
AcDbLine
 10
69.81309133703144
 20
71.97790000907585
 30
0.0
 11
73.27446958665053
 21
77.97762230841573
 31
0.0
  0
LINE
  5
E7
330
1F
100
AcDbEntity
  8
Sichtbare_Kanten_TC_020513_DIN_
  6
Continuous
 62
     7
100
AcDbLine
 10
73.27446958665053
 20
77.97762230841573
 30
0.0
 11
69.81309133703144
 21
83.97734460775564
 31
0.0
  0
LINE
  5
E8
330
1F
100
AcDbEntity
  8
Sichtbare_Kanten_TC_020513_DIN_
  6
Continuous
 62
     7
100
AcDbLine
 10
69.81309133703144
 20
83.97734460775564
 30
0.0
 11
66.35171308741224
 21
77.97762230841573
 31
0.0
  0
LINE
  5
E9
330
1F
100
AcDbEntity
  8
Sichtbare_Kanten_TC_020513_DIN_
  6
Continuous
 62
     7
100
AcDbLine
 10
66.35171308741224
 20
77.97762230841573
 30
0.0
 11
69.81309133703144
 21
71.97790000907585
 31
0.0
  0
LINE
  5
EA
330
1F
100
AcDbEntity
  8
Sichtbare_Kanten_TC_020513_DIN_
  6
Continuous
 62
     7
100
AcDbLine
 10
73.56309133703144
 20
77.97762230841573
 30
0.0
 11
69.81309133703144
 21
71.47762230841573
 31
0.0
  0
LINE
  5
EB
330
1F
100
AcDbEntity
  8
Sichtbare_Kanten_TC_020513_DIN_
  6
Continuous
 62
     7
100
AcDbLine
 10
69.81309133703144
 20
84.47762230841573
 30
0.0
 11
73.56309133703144
 21
77.97762230841573
 31
0.0
  0
LINE
  5
EC
330
1F
100
AcDbEntity
  8
Sichtbare_Kanten_TC_020513_DIN_
  6
Continuous
 62
     7
100
AcDbLine
 10
66.06309133703144
 20
77.97762230841573
 30
0.0
 11
69.81309133703144
 21
84.47762230841573
 31
0.0
  0
LINE
  5
ED
330
1F
100
AcDbEntity
  8
Sichtbare_Kanten_TC_020513_DIN_
  6
Continuous
 62
     7
100
AcDbLine
 10
69.81309133703144
 20
71.47762230841573
 30
0.0
 11
66.06309133703144
 21
77.97762230841573
 31
0.0
  0
LINE
  5
EE
330
1F
100
AcDbEntity
  8
Sichtbare_Kanten_TC_020513_DIN_
  6
Continuous
 62
     7
100
AcDbLine
 10
71.51453377819655
 20
75.67762230841575
 30
0.0
 11
68.11164889586621
 21
75.67762230841575
 31
0.0
  0
LINE
  5
EF
330
1F
100
AcDbEntity
  8
Sichtbare_Kanten_TC_020513_DIN_
  6
Continuous
 62
     7
100
AcDbLine
 10
72.91377248240099
 20
77.85269169504335
 30
0.0
 11
71.73108017470872
 21
75.80269169504334
 31
0.0
  0
LINE
  5
F0
330
1F
100
AcDbEntity
  8
Sichtbare_Kanten_TC_020513_DIN_
  6
Continuous
 62
     7
100
AcDbLine
 10
71.37014279704658
 20
76.17762230841575
 30
0.0
 11
72.48067968937676
 21
78.10255292178815
 31
0.0
  0
LINE
  5
F1
330
1F
100
AcDbEntity
  8
Sichtbare_Kanten_TC_020513_DIN_
  6
Continuous
 62
     7
100
AcDbLine
 10
68.11164889586621
 20
76.17762230841575
 30
0.0
 11
71.37014279704658
 21
76.17762230841575
 31
0.0
  0
LINE
  5
F2
330
1F
100
AcDbEntity
  8
Sichtbare_Kanten_TC_020513_DIN_
  6
Continuous
 62
     7
100
AcDbLine
 10
68.27737146124059
 20
78.72762230841573
 30
0.0
 11
69.31309133703132
 21
77.97762230841573
 31
0.0
  0
LINE
  5
F3
330
1F
100
AcDbEntity
  8
Sichtbare_Kanten_TC_020513_DIN_
  6
Continuous
 62
     7
100
AcDbLine
 10
72.12030300896583
 20
78.72762230841573
 30
0.0
 11
68.27737146124059
 21
78.72762230841573
 31
0.0
  0
LINE
  5
F4
330
1F
100
AcDbEntity
  8
Sichtbare_Kanten_TC_020513_DIN_
  6
Continuous
 62
     7
100
AcDbLine
 10
67.50587966509693
 20
79.22762230841573
 30
0.0
 11
72.12030300896583
 21
79.22762230841573
 31
0.0
  0
LINE
  5
F5
330
1F
100
AcDbEntity
  8
Sichtbare_Kanten_TC_020513_DIN_
  6
Continuous
 62
     7
100
AcDbLine
 10
68.46058766193778
 20
77.97762230841573
 30
0.0
 11
67.35925273121745
 21
78.77513640208866
 31
0.0
  0
LINE
  5
F6
330
1F
100
AcDbEntity
  8
Sichtbare_Kanten_TC_020513_DIN_
  6
Continuous
 62
     7
100
AcDbLine
 10
67.35925273121745
 20
77.18010821474275
 30
0.0
 11
68.46058766193778
 21
77.97762230841573
 31
0.0
  0
LINE
  5
F7
330
1F
100
AcDbEntity
  8
Sichtbare_Kanten_TC_020513_DIN_
  6
Continuous
 62
     7
100
AcDbLine
 10
70.93761070127357
 20
76.72762230841573
 30
0.0
 11
67.50587966509693
 21
76.72762230841573
 31
0.0
  0
LINE
  5
F8
330
1F
100
AcDbEntity
  8
Sichtbare_Kanten_TC_020513_DIN_
  6
Continuous
 62
     7
100
AcDbLine
 10
68.27737146124059
 20
77.22762230841573
 30
0.0
 11
70.93761070127357
 21
77.22762230841573
 31
0.0
  0
LINE
  5
F9
330
1F
100
AcDbEntity
  8
Sichtbare_Kanten_TC_020513_DIN_
  6
Continuous
 62
     7
100
AcDbLine
 10
69.31309133703132
 20
77.97762230841573
 30
0.0
 11
68.27737146124059
 21
77.22762230841573
 31
0.0
  0
LINE
  5
FA
330
1F
100
AcDbEntity
  8
Sichtbare_Kanten_TC_020513_DIN_
  6
Continuous
 62
     7
100
AcDbLine
 10
57.68809133703144
 20
87.47762230841573
 30
0.0
 11
57.68809133703144
 21
77.97762230841573
 31
0.0
  0
LINE
  5
FB
330
1F
100
AcDbEntity
  8
Sichtbare_Kanten_TC_020513_DIN_
  6
Continuous
 62
     7
100
AcDbLine
 10
57.68809133703144
 20
77.97762230841573
 30
0.0
 11
57.68809133703144
 21
68.47762230841573
 31
0.0
  0
LINE
  5
FC
330
1F
100
AcDbEntity
  8
Sichtbare_Kanten_TC_020513_DIN_
  6
Continuous
 62
     7
100
AcDbLine
 10
57.68809133703144
 20
87.47762230841573
 30
0.0
 11
57.68809133703144
 21
89.97762230841494
 31
0.0
  0
LINE
  5
FD
330
1F
100
AcDbEntity
  8
Sichtbare_Kanten_TC_020513_DIN_
  6
Continuous
 62
     7
100
AcDbLine
 10
57.68809133703144
 20
65.97762230841505
 30
0.0
 11
57.68809133703144
 21
68.47762230841573
 31
0.0
  0
LINE
  5
FE
330
1F
100
AcDbEntity
  8
Sichtbare_Kanten_TC_020513_DIN_
  6
Continuous
 62
     7
100
AcDbLine
 10
70.89684564244976
 20
58.19984453063054
 30
0.0
 11
58.89684564244965
 21
64.38450296905705
 31
0.0
  0
LINE
  5
FF
330
1F
100
AcDbEntity
  8
Sichtbare_Kanten_TC_020513_DIN_
  6
Continuous
 62
     7
100
AcDbLine
 10
70.43872279515881
 20
57.31095564174166
 30
0.0
 11
58.43872279515881
 21
63.49561408016814
 31
0.0
  0
LINE
  5
100
330
1F
100
AcDbEntity
  8
Sichtbare_Kanten_TC_020513_DIN_
  6
Continuous
 62
     7
100
AcDbLine
 10
58.43872279515881
 20
92.45963053664855
 30
0.0
 11
70.43872279515881
 21
98.64428897507534
 31
0.0
  0
LINE
  5
101
330
1F
100
AcDbEntity
  8
Sichtbare_Kanten_TC_020513_DIN_
  6
Continuous
 62
     7
100
AcDbLine
 10
58.89684564244976
 20
91.57074164775955
 30
0.0
 11
70.89684564244976
 21
97.75540008618634
 31
0.0
  0
LINE
  5
102
330
1F
100
AcDbEntity
  8
Sichtbare_Kanten_TC_020513_DIN_
  6
Continuous
 62
     7
100
AcDbLine
 10
46.81309133710033
 20
89.97762230841215
 30
0.0
 11
46.81309133710033
 21
65.97762230841215
 31
0.0
  0
LINE
  5
103
330
1F
100
AcDbEntity
  8
Sichtbare_Kanten_TC_020513_DIN_
  6
Continuous
 62
     7
100
AcDbLine
 10
57.68809133703144
 20
65.97762230841505
 30
0.0
 11
46.81309133710033
 21
65.97762230841215
 31
0.0
  0
LINE
  5
104
330
1F
100
AcDbEntity
  8
Sichtbare_Kanten_TC_020513_DIN_
  6
Continuous
 62
     7
100
AcDbLine
 10
57.68809133703144
 20
89.97762230841494
 30
0.0
 11
46.81309133710033
 21
89.97762230841215
 31
0.0
  0
LINE
  5
105
330
1F
100
AcDbEntity
  8
Sichtbare_Kanten_TC_020513_DIN_
  6
Continuous
 62
     7
100
AcDbLine
 10
153.0015601760895
 20
172.6616108010904
 30
0.0
 11
162.5015601760895
 21
172.6616108010904
 31
0.0
  0
LINE
  5
106
330
1F
100
AcDbEntity
  8
Sichtbare_Kanten_TC_020513_DIN_
  6
Continuous
 62
     7
100
AcDbLine
 10
162.5015601760895
 20
172.6616108010904
 30
0.0
 11
172.0015601760895
 21
172.6616108010904
 31
0.0
  0
LINE
  5
107
330
1F
100
AcDbEntity
  8
Sichtbare_Kanten_TC_020513_DIN_
  6
Continuous
 62
     7
100
AcDbLine
 10
150.5015601760895
 20
147.6616108010904
 30
0.0
 11
150.5015601760895
 21
160.6616108010904
 31
0.0
  0
LINE
  5
108
330
1F
100
AcDbEntity
  8
Sichtbare_Kanten_TC_020513_DIN_
  6
Continuous
 62
     7
100
AcDbLine
 10
150.5015601760895
 20
160.6616108010904
 30
0.0
 11
150.5015601760895
 21
170.1616108010904
 31
0.0
  0
LINE
  5
109
330
1F
100
AcDbEntity
  8
Sichtbare_Kanten_TC_020513_DIN_
  6
Continuous
 62
     7
100
AcDbLine
 10
174.5015601760895
 20
170.1616108010904
 30
0.0
 11
174.5015601760895
 21
160.6616108010904
 31
0.0
  0
LINE
  5
10A
330
1F
100
AcDbEntity
  8
Sichtbare_Kanten_TC_020513_DIN_
  6
Continuous
 62
     7
100
AcDbLine
 10
174.5015601760895
 20
160.6616108010904
 30
0.0
 11
174.5015601760895
 21
147.6616108010904
 31
0.0
  0
LINE
  5
10B
330
1F
100
AcDbEntity
  8
Sichtbare_Kanten_TC_020513_DIN_
  6
Continuous
 62
     7
100
AcDbLine
 10
174.3169017376624
 20
147.6616108010904
 30
0.0
 11
150.6862186145154
 21
147.6616108010904
 31
0.0
  0
LINE
  5
10C
330
1F
100
AcDbEntity
  8
Sichtbare_Kanten_TC_020513_DIN_
  6
Continuous
 62
     7
100
AcDbLine
 10
174.3169017376624
 20
147.6616108010904
 30
0.0
 11
176.9835684043294
 21
147.6616108010904
 31
0.0
  0
LINE
  5
10D
330
1F
100
AcDbEntity
  8
Sichtbare_Kanten_TC_020513_DIN_
  6
Continuous
 62
     7
100
AcDbLine
 10
183.1682268427594
 20
147.6616108010904
 30
0.0
 11
176.9835684043294
 21
147.6616108010904
 31
0.0
  0
LINE
  5
10E
330
1F
100
AcDbEntity
  8
Sichtbare_Kanten_TC_020513_DIN_
  6
Continuous
 62
     7
100
AcDbLine
 10
183.1682268427594
 20
147.6616108010904
 30
0.0
 11
183.5015601760936
 21
147.6616108010904
 31
0.0
  0
LINE
  5
10F
330
1F
100
AcDbEntity
  8
Sichtbare_Kanten_TC_020513_DIN_
  6
Continuous
 62
     7
100
AcDbLine
 10
141.5015601760936
 20
147.6616108010904
 30
0.0
 11
141.8348935094264
 21
147.6616108010904
 31
0.0
  0
LINE
  5
110
330
1F
100
AcDbEntity
  8
Sichtbare_Kanten_TC_020513_DIN_
  6
Continuous
 62
     7
100
AcDbLine
 10
148.0195519478494
 20
147.6616108010904
 30
0.0
 11
141.8348935094264
 21
147.6616108010904
 31
0.0
  0
LINE
  5
111
330
1F
100
AcDbEntity
  8
Sichtbare_Kanten_TC_020513_DIN_
  6
Continuous
 62
     7
100
AcDbLine
 10
148.0195519478494
 20
147.6616108010904
 30
0.0
 11
150.6862186145154
 21
147.6616108010904
 31
0.0
  0
LINE
  5
112
330
1F
100
AcDbEntity
  8
Sichtbare_Kanten_TC_020513_DIN_
  6
Continuous
 62
     7
100
AcDbLine
 10
176.9835684043294
 20
144.1616108010904
 30
0.0
 11
183.1682268427594
 21
144.1616108010904
 31
0.0
  0
LINE
  5
113
330
1F
100
AcDbEntity
  8
Sichtbare_Kanten_TC_020513_DIN_
  6
Continuous
 62
     7
100
AcDbLine
 10
183.5015601760936
 20
144.1616108010904
 30
0.0
 11
183.1682268427594
 21
144.1616108010904
 31
0.0
  0
LINE
  5
114
330
1F
100
AcDbEntity
  8
Sichtbare_Kanten_TC_020513_DIN_
  6
Continuous
 62
     7
100
AcDbLine
 10
141.8348935094264
 20
144.1616108010904
 30
0.0
 11
141.5015601760936
 21
144.1616108010904
 31
0.0
  0
LINE
  5
115
330
1F
100
AcDbEntity
  8
Sichtbare_Kanten_TC_020513_DIN_
  6
Continuous
 62
     7
100
AcDbLine
 10
141.8348935094264
 20
144.1616108010904
 30
0.0
 11
148.0195519478494
 21
144.1616108010904
 31
0.0
  0
LINE
  5
116
330
1F
100
AcDbEntity
  8
Sichtbare_Kanten_TC_020513_DIN_
  6
Continuous
 62
     7
100
AcDbLine
 10
150.6862186145154
 20
144.1616108010904
 30
0.0
 11
148.0195519478494
 21
144.1616108010904
 31
0.0
  0
LINE
  5
117
330
1F
100
AcDbEntity
  8
Sichtbare_Kanten_TC_020513_DIN_
  6
Continuous
 62
     7
100
AcDbLine
 10
150.6862186145154
 20
144.1616108010904
 30
0.0
 11
174.3169017376624
 21
144.1616108010904
 31
0.0
  0
LINE
  5
118
330
1F
100
AcDbEntity
  8
Sichtbare_Kanten_TC_020513_DIN_
  6
Continuous
 62
     7
100
AcDbLine
 10
176.9835684043294
 20
144.1616108010904
 30
0.0
 11
174.3169017376624
 21
144.1616108010904
 31
0.0
  0
LINE
  5
119
330
1F
100
AcDbEntity
  8
Sichtbare_Kanten_TC_020513_DIN_
  6
Continuous
 62
     7
100
AcDbLine
 10
183.5015601760936
 20
147.6616108010904
 30
0.0
 11
183.5015601760936
 21
144.1616108010904
 31
0.0
  0
LINE
  5
11A
330
1F
100
AcDbEntity
  8
Sichtbare_Kanten_TC_020513_DIN_
  6
Continuous
 62
     7
100
AcDbLine
 10
141.5015601760936
 20
147.6616108010904
 30
0.0
 11
141.5015601760936
 21
144.1616108010904
 31
0.0
  0
LINE
  5
11B
330
1F
100
AcDbEntity
  8
Sichtbare_Kanten_TC_020513_DIN_
  6
Continuous
 62
     7
100
AcDbLine
 10
174.5015601760895
 20
149.1616108010904
 30
0.0
 11
180.5015601760936
 21
149.1616108010904
 31
0.0
  0
LINE
  5
11C
330
1F
100
AcDbEntity
  8
Sichtbare_Kanten_TC_020513_DIN_
  6
Continuous
 62
     7
100
AcDbLine
 10
150.5015601760895
 20
149.1616108010904
 30
0.0
 11
144.5015601760936
 21
149.1616108010904
 31
0.0
  0
LINE
  5
11D
330
1F
100
AcDbEntity
  8
Mittellinie_TC_020513_DIN_
  6
DOT_CENTER
 62
     2
100
AcDbLine
 10
71.81309133710033
 20
148.6616108010904
 30
0.0
 11
71.81309133710033
 21
141.6616108010904
 31
0.0
  0
LINE
  5
11E
330
1F
100
AcDbEntity
  8
Mittellinie_TC_020513_DIN_
  6
DOT_CENTER
 62
     2
100
AcDbLine
 10
71.81309133710033
 20
143.6616108010904
 30
0.0
 11
71.81309133710033
 21
151.6616108010904
 31
0.0
  0
LINE
  5
11F
330
1F
100
AcDbEntity
  8
Mittellinie_TC_020513_DIN_
  6
DOT_CENTER
 62
     2
100
AcDbLine
 10
147.5015601760936
 20
143.6616108010904
 30
0.0
 11
147.5015601760936
 21
151.6616108010904
 31
0.0
  0
LINE
  5
120
330
1F
100
AcDbEntity
  8
Mittellinie_TC_020513_DIN_
  6
DOT_CENTER
 62
     2
100
AcDbLine
 10
177.5015601760936
 20
143.6616108010904
 30
0.0
 11
177.5015601760936
 21
151.6616108010904
 31
0.0
  0
LINE
  5
121
330
1F
100
AcDbEntity
  8
Skizziergeometrie_TC_020513_DIN_
  6
Continuous
 62
     7
100
AcDbLine
 10
59.49825347949758
 20
237.826613746545
 30
0.0
 11
37.49825347949758
 21
237.826613746545
 31
0.0
  0
LINE
  5
122
330
1F
100
AcDbEntity
  8
Skizziergeometrie_TC_020513_DIN_
  6
Continuous
 62
     7
100
AcDbLine
 10
37.49825347949758
 20
237.826613746545
 30
0.0
 11
37.49825347949758
 21
259.8266137465449
 31
0.0
  0
LINE
  5
123
330
1F
100
AcDbEntity
  8
Skizziergeometrie_TC_020513_DIN_
  6
Continuous
 62
     7
100
AcDbLine
 10
37.49825347949758
 20
259.8266137465449
 30
0.0
 11
59.49825347949758
 21
259.8266137465449
 31
0.0
  0
LINE
  5
124
330
1F
100
AcDbEntity
  8
Skizziergeometrie_TC_020513_DIN_
  6
Continuous
 62
     7
100
AcDbLine
 10
59.49825347949758
 20
259.8266137465449
 30
0.0
 11
59.49825347949758
 21
237.826613746545
 31
0.0
  0
LINE
  5
125
330
1F
100
AcDbEntity
  8
Mittellinie_TC_020513_DIN_
  6
DOT_CENTER
 62
     2
100
AcDbLine
 10
48.49825347949758
 20
235.826613746545
 30
0.0
 11
48.49825347949758
 21
261.8266137465449
 31
0.0
  0
LINE
  5
126
330
1F
100
AcDbEntity
  8
Mittellinie_TC_020513_DIN_
  6
DOT_CENTER
 62
     2
100
AcDbLine
 10
34.99825347949758
 20
248.826613746545
 30
0.0
 11
61.99825347949758
 21
248.826613746545
 31
0.0
  0
LINE
  5
127
330
1F
100
AcDbEntity
  8
1
  6
DOT_CENTER
 62
     2
100
AcDbLine
 10
172.7515601760888
 20
160.6616108010904
 30
0.0
 11
152.251560176082
 21
160.6616108010904
 31
0.0
  0
LINE
  5
128
330
1F
100
AcDbEntity
  8
1
  6
DOT_CENTER
 62
     2
100
AcDbLine
 10
162.5015601760854
 20
170.9116108010938
 30
0.0
 11
162.5015601760854
 21
150.411610801087
 31
0.0
  0
LINE
  5
129
330
1F
100
AcDbEntity
  8
Sichtbare_Kanten_TC_020513_DIN_
  6
Continuous
 62
     7
100
AcDbLine
 10
85.81309133710033
 20
148.6616108010904
 30
0.0
 11
85.81309133710033
 21
147.6616108010904
 31
0.0
  0
LINE
  5
12A
330
1F
100
AcDbEntity
  8
1
  6
DOT_CENTER
 62
     2
100
AcDbLine
 10
75.62809133703149
 20
92.97762230840874
 30
0.0
 11
67.9980913370315
 21
92.97762230840874
 31
0.0
  0
LINE
  5
12B
330
1F
100
AcDbEntity
  8
1
  6
DOT_CENTER
 62
     2
100
AcDbLine
 10
71.81309133703144
 20
96.79262230840874
 30
0.0
 11
71.81309133703144
 21
89.1626223084088
 31
0.0
  0
LINE
  5
12C
330
1F
100
AcDbEntity
  8
1
  6
DOT_CENTER
 62
     2
100
AcDbLine
 10
75.62809133703149
 20
62.97762230840874
 30
0.0
 11
67.9980913370315
 21
62.97762230840874
 31
0.0
  0
LINE
  5
12D
330
1F
100
AcDbEntity
  8
1
  6
DOT_CENTER
 62
     2
100
AcDbLine
 10
71.81309133703144
 20
66.79262230840874
 30
0.0
 11
71.81309133703144
 21
59.1626223084088
 31
0.0
  0
LINE
  5
12E
330
1F
100
AcDbEntity
  8
1
  6
DOT_CENTER
 62
     2
100
AcDbLine
 10
52.31325347949763
 20
263.826613746545
 30
0.0
 11
44.68325347949752
 21
263.826613746545
 31
0.0
  0
LINE
  5
12F
330
1F
100
AcDbEntity
  8
1
  6
DOT_CENTER
 62
     2
100
AcDbLine
 10
48.49825347949758
 20
267.641613746545
 30
0.0
 11
48.49825347949758
 21
260.0116137465449
 31
0.0
  0
LINE
  5
130
330
1F
100
AcDbEntity
  8
1
  6
DOT_CENTER
 62
     2
100
AcDbLine
 10
52.31325347949763
 20
233.826613746545
 30
0.0
 11
44.68325347949752
 21
233.826613746545
 31
0.0
  0
LINE
  5
131
330
1F
100
AcDbEntity
  8
1
  6
DOT_CENTER
 62
     2
100
AcDbLine
 10
48.49825347949758
 20
237.641613746545
 30
0.0
 11
48.49825347949758
 21
230.011613746545
 31
0.0
  0
LINE
  5
5FA
330
1F
100
AcDbEntity
  8
Sichtbare_Kanten_TC_020513_DIN_
  6
Continuous
 62
     7
100
AcDbLine
 10
177.5015601760983
 20
184.2914179565384
 30
0.0
 11
176.3015601760984
 21
184.2914179565384
 31
0.0
  0
LINE
  5
5FB
330
1F
100
AcDbEntity
  8
Sichtbare_Kanten_TC_020513_DIN_
  6
Continuous
 62
     7
100
AcDbLine
 10
148.5015601760954
 20
153.7106613260854
 30
0.0
 11
148.5015601760964
 21
153.6616108010904
 31
0.0
  0
LINE
  5
5FC
330
1F
100
AcDbEntity
  8
Sichtbare_Kanten_TC_020513_DIN_
  6
Continuous
 62
     7
100
AcDbLine
 10
148.5015601760964
 20
167.6616108010904
 30
0.0
 11
148.5015601760924
 21
165.3994957767293
 31
0.0
  0
LINE
  5
5FD
330
1F
100
AcDbEntity
  8
Sichtbare_Kanten_TC_020513_DIN_
  6
Continuous
 62
     7
100
AcDbLine
 10
176.5015601760924
 20
165.3994957767293
 30
0.0
 11
176.5015601760964
 21
167.6616108010904
 31
0.0
  0
LINE
  5
5FE
330
1F
100
AcDbEntity
  8
Sichtbare_Kanten_TC_020513_DIN_
  6
Continuous
 62
     7
100
AcDbLine
 10
176.5015601760964
 20
153.6616108010904
 30
0.0
 11
176.5015601760954
 21
153.7106613260854
 31
0.0
  0
LINE
  5
5FF
330
1F
100
AcDbEntity
  8
Sichtbare_Kanten_TC_020513_DIN_
  6
Continuous
 62
     7
100
AcDbLine
 10
176.5015601760954
 20
153.7106613260854
 30
0.0
 11
176.5015601760924
 21
165.3994957767293
 31
0.0
  0
LINE
  5
600
330
1F
100
AcDbEntity
  8
Sichtbare_Kanten_TC_020513_DIN_
  6
Continuous
 62
     7
100
AcDbLine
 10
148.5015601760924
 20
165.3994957767293
 30
0.0
 11
148.5015601760954
 21
153.7106613260854
 31
0.0
  0
LINE
  5
601
330
1F
100
AcDbEntity
  8
Sichtbare_Kanten_TC_020513_DIN_
  6
Continuous
 62
     7
100
AcDbLine
 10
177.8015601760934
 20
178.5679950786824
 30
0.0
 11
177.8015601760974
 21
184.8268090725174
 31
0.0
  0
LINE
  5
602
330
1F
100
AcDbEntity
  8
Sichtbare_Kanten_TC_020513_DIN_
  6
Continuous
 62
     7
100
AcDbLine
 10
177.8015601760934
 20
178.5679950786824
 30
0.0
 11
177.8015601760934
 21
178.5012757109354
 31
0.0
  0
LINE
  5
603
330
1F
100
AcDbEntity
  8
Sichtbare_Kanten_TC_020513_DIN_
  6
Continuous
 62
     7
100
AcDbLine
 10
177.8015601760924
 20
171.0783575386313
 30
0.0
 11
177.8015601760924
 21
167.6039791612544
 31
0.0
  0
LINE
  5
604
330
1F
100
AcDbEntity
  8
Sichtbare_Kanten_TC_020513_DIN_
  6
Continuous
 62
     7
100
AcDbLine
 10
147.2015601760934
 20
178.5012757109354
 30
0.0
 11
147.2015601760934
 21
178.5679950786824
 31
0.0
  0
LINE
  5
605
330
1F
100
AcDbEntity
  8
Sichtbare_Kanten_TC_020513_DIN_
  6
Continuous
 62
     7
100
AcDbLine
 10
147.2015601760975
 20
184.8268090725174
 30
0.0
 11
147.2015601760934
 21
178.5679950786824
 31
0.0
  0
LINE
  5
606
330
1F
100
AcDbEntity
  8
Sichtbare_Kanten_TC_020513_DIN_
  6
Continuous
 62
     7
100
AcDbLine
 10
147.2015601760965
 20
153.6616108010904
 30
0.0
 11
147.2015601760954
 21
153.7106613260854
 31
0.0
  0
LINE
  5
607
330
1F
100
AcDbEntity
  8
Sichtbare_Kanten_TC_020513_DIN_
  6
Continuous
 62
     7
100
AcDbLine
 10
147.2015601760954
 20
153.7106613260854
 30
0.0
 11
147.2015601760925
 21
164.4918335634414
 31
0.0
  0
LINE
  5
608
330
1F
100
AcDbEntity
  8
Sichtbare_Kanten_TC_020513_DIN_
  6
Continuous
 62
     7
100
AcDbLine
 10
147.2015601760925
 20
167.6039791612544
 30
0.0
 11
147.2015601760925
 21
171.0783575386313
 31
0.0
  0
LINE
  5
609
330
1F
100
AcDbEntity
  8
Sichtbare_Kanten_TC_020513_DIN_
  6
Continuous
 62
     7
100
AcDbLine
 10
179.0015601760935
 20
166.1635337894103
 30
0.0
 11
179.0015601760924
 21
166.6413979263204
 31
0.0
  0
LINE
  5
60A
330
1F
100
AcDbEntity
  8
Sichtbare_Kanten_TC_020513_DIN_
  6
Continuous
 62
     7
100
AcDbLine
 10
146.0015601760924
 20
166.6413979263214
 30
0.0
 11
146.0015601760935
 21
166.1635337894103
 31
0.0
  0
LINE
  5
60B
330
1F
100
AcDbEntity
  8
Sichtbare_Kanten_TC_020513_DIN_
  6
Continuous
 62
     7
100
AcDbLine
 10
146.0015601760924
 20
177.9633304276414
 30
0.0
 11
146.0015601760935
 21
178.0668580456754
 31
0.0
  0
LINE
  5
60C
330
1F
100
AcDbEntity
  8
Sichtbare_Kanten_TC_020513_DIN_
  6
Continuous
 62
     7
100
AcDbLine
 10
146.0351282628524
 20
178.0668580456743
 30
0.0
 11
146.0015601760935
 21
178.0668580456754
 31
0.0
  0
LINE
  5
60D
330
1F
100
AcDbEntity
  8
Sichtbare_Kanten_TC_020513_DIN_
  6
Continuous
 62
     7
100
AcDbLine
 10
146.0015601760924
 20
177.9633304276414
 30
0.0
 11
146.0015601760924
 21
171.0783575386313
 31
0.0
  0
LINE
  5
60E
330
1F
100
AcDbEntity
  8
Sichtbare_Kanten_TC_020513_DIN_
  6
Continuous
 62
     7
100
AcDbLine
 10
178.9679920893324
 20
178.0668580456754
 30
0.0
 11
179.0015601760935
 21
178.0668580456754
 31
0.0
  0
LINE
  5
60F
330
1F
100
AcDbEntity
  8
Sichtbare_Kanten_TC_020513_DIN_
  6
Continuous
 62
     7
100
AcDbLine
 10
179.0015601760935
 20
178.0668580456754
 30
0.0
 11
179.0015601760935
 21
177.9633304276344
 31
0.0
  0
LINE
  5
610
330
1F
100
AcDbEntity
  8
Sichtbare_Kanten_TC_020513_DIN_
  6
Continuous
 62
     7
100
AcDbLine
 10
179.0015601760935
 20
177.9633304276344
 30
0.0
 11
179.0015601760924
 21
171.0783575386313
 31
0.0
  0
LINE
  5
611
330
1F
100
AcDbEntity
  8
Sichtbare_Kanten_TC_020513_DIN_
  6
Continuous
 62
     7
100
AcDbLine
 10
174.2736107705935
 20
173.3325728552144
 30
0.0
 11
175.5759917170065
 21
172.3557871454044
 31
0.0
  0
LINE
  5
612
330
1F
100
AcDbEntity
  8
Sichtbare_Kanten_TC_020513_DIN_
  6
Continuous
 62
     7
100
AcDbLine
 10
149.4271286351774
 20
172.3557871454044
 30
0.0
 11
150.7295095815894
 21
173.3325728552144
 31
0.0
  0
LINE
  5
613
330
1F
100
AcDbEntity
  8
Sichtbare_Kanten_TC_020513_DIN_
  6
Continuous
 62
     7
100
AcDbLine
 10
172.5015601760924
 20
174.6616108010904
 30
0.0
 11
174.2736107705935
 21
173.3325728552144
 31
0.0
  0
LINE
  5
614
330
1F
100
AcDbEntity
  8
Sichtbare_Kanten_TC_020513_DIN_
  6
Continuous
 62
     7
100
AcDbLine
 10
152.5015601760924
 20
174.6616108010904
 30
0.0
 11
172.5015601760924
 21
174.6616108010904
 31
0.0
  0
LINE
  5
615
330
1F
100
AcDbEntity
  8
Sichtbare_Kanten_TC_020513_DIN_
  6
Continuous
 62
     7
100
AcDbLine
 10
150.7295095815894
 20
173.3325728552144
 30
0.0
 11
152.5015601760924
 21
174.6616108010904
 31
0.0
  0
LINE
  5
616
330
1F
100
AcDbEntity
  8
Sichtbare_Kanten_TC_020513_DIN_
  6
Continuous
 62
     7
100
AcDbLine
 10
146.0015601760974
 20
184.8268090725174
 30
0.0
 11
147.2015601760975
 21
184.8268090725174
 31
0.0
  0
LINE
  5
617
330
1F
100
AcDbEntity
  8
Sichtbare_Kanten_TC_020513_DIN_
  6
Continuous
 62
     7
100
AcDbLine
 10
176.5015601760964
 20
153.6616108010904
 30
0.0
 11
177.8015601760965
 21
153.6616108010904
 31
0.0
  0
LINE
  5
618
330
1F
100
AcDbEntity
  8
Sichtbare_Kanten_TC_020513_DIN_
  6
Continuous
 62
     7
100
AcDbLine
 10
176.5015601760964
 20
167.6616108010904
 30
0.0
 11
177.8015601760965
 21
167.6616108010904
 31
0.0
  0
LINE
  5
619
330
1F
100
AcDbEntity
  8
Sichtbare_Kanten_TC_020513_DIN_
  6
Continuous
 62
     7
100
AcDbLine
 10
177.8015601760974
 20
184.8268090725174
 30
0.0
 11
179.0015601760974
 21
184.8268090725174
 31
0.0
  0
LINE
  5
61A
330
1F
100
AcDbEntity
  8
Sichtbare_Kanten_TC_020513_DIN_
  6
Continuous
 62
     7
100
AcDbLine
 10
147.2015601760965
 20
153.6616108010904
 30
0.0
 11
148.5015601760964
 21
153.6616108010904
 31
0.0
  0
LINE
  5
61B
330
1F
100
AcDbEntity
  8
Sichtbare_Kanten_TC_020513_DIN_
  6
Continuous
 62
     7
100
AcDbLine
 10
147.2015601760965
 20
167.6616108010904
 30
0.0
 11
148.5015601760964
 21
167.6616108010904
 31
0.0
  0
LINE
  5
61C
330
1F
100
AcDbEntity
  8
Sichtbare_Kanten_TC_020513_DIN_
  6
Continuous
 62
     7
100
AcDbLine
 10
179.0015601760924
 20
171.0783575386313
 30
0.0
 11
179.0015601760924
 21
166.6413979263204
 31
0.0
  0
LINE
  5
61D
330
1F
100
AcDbEntity
  8
Sichtbare_Kanten_TC_020513_DIN_
  6
Continuous
 62
     7
100
AcDbLine
 10
179.0015601760935
 20
178.5679950786824
 30
0.0
 11
179.0015601760935
 21
178.0668580456754
 31
0.0
  0
LINE
  5
61E
330
1F
100
AcDbEntity
  8
Sichtbare_Kanten_TC_020513_DIN_
  6
Continuous
 62
     7
100
AcDbLine
 10
179.0015601760935
 20
178.5679950786824
 30
0.0
 11
179.0015601760974
 21
184.8268090725174
 31
0.0
  0
LINE
  5
61F
330
1F
100
AcDbEntity
  8
Sichtbare_Kanten_TC_020513_DIN_
  6
Continuous
 62
     7
100
AcDbLine
 10
146.0015601760974
 20
184.8268090725174
 30
0.0
 11
146.0015601760935
 21
178.5679950786824
 31
0.0
  0
LINE
  5
620
330
1F
100
AcDbEntity
  8
Sichtbare_Kanten_TC_020513_DIN_
  6
Continuous
 62
     7
100
AcDbLine
 10
146.0015601760935
 20
178.0668580456754
 30
0.0
 11
146.0015601760935
 21
178.5679950786824
 31
0.0
  0
LINE
  5
621
330
1F
100
AcDbEntity
  8
Sichtbare_Kanten_TC_020513_DIN_
  6
Continuous
 62
     7
100
AcDbLine
 10
146.0015601760924
 20
166.6413979263214
 30
0.0
 11
146.0015601760924
 21
171.0783575386313
 31
0.0
  0
LINE
  5
622
330
1F
100
AcDbEntity
  8
Sichtbare_Kanten_TC_020513_DIN_
  6
Continuous
 62
     7
100
AcDbLine
 10
148.4015601760924
 20
172.3557871454044
 30
0.0
 11
149.4271286351774
 21
172.3557871454044
 31
0.0
  0
LINE
  5
623
330
1F
100
AcDbEntity
  8
Sichtbare_Kanten_TC_020513_DIN_
  6
Continuous
 62
     7
100
AcDbLine
 10
175.5759917170065
 20
172.3557871454044
 30
0.0
 11
176.6015601760925
 21
172.3557871454044
 31
0.0
  0
LINE
  5
624
330
1F
100
AcDbEntity
  8
Sichtbare_Kanten_TC_020513_DIN_
  6
Continuous
 62
     7
100
AcDbLine
 10
176.6015601760925
 20
178.5844961358803
 30
0.0
 11
173.0015601760924
 21
178.5844961358803
 31
0.0
  0
LINE
  5
625
330
1F
100
AcDbEntity
  8
Sichtbare_Kanten_TC_020513_DIN_
  6
Continuous
 62
     7
100
AcDbLine
 10
176.6015601760914
 20
173.3325728552144
 30
0.0
 11
174.2736107705935
 21
173.3325728552144
 31
0.0
  0
LINE
  5
626
330
1F
100
AcDbEntity
  8
Sichtbare_Kanten_TC_020513_DIN_
  6
Continuous
 62
     7
100
AcDbLine
 10
150.7295095815894
 20
173.3325728552144
 30
0.0
 11
148.4015601760914
 21
173.3325728552144
 31
0.0
  0
LINE
  5
627
330
1F
100
AcDbEntity
  8
Sichtbare_Kanten_TC_020513_DIN_
  6
Continuous
 62
     7
100
AcDbLine
 10
152.0015601760924
 20
178.5844961358803
 30
0.0
 11
148.4015601760924
 21
178.5844961358803
 31
0.0
  0
LINE
  5
628
330
1F
100
AcDbEntity
  8
Sichtbare_Kanten_TC_020513_DIN_
  6
Continuous
 62
     7
100
AcDbLine
 10
156.2862141520494
 20
185.1766086199894
 30
0.0
 11
168.7169062001334
 21
185.1766086199894
 31
0.0
  0
LINE
  5
629
330
1F
100
AcDbEntity
  8
Sichtbare_Kanten_TC_020513_DIN_
  6
Continuous
 62
     7
100
AcDbLine
 10
168.7169062001334
 20
184.6766086199894
 30
0.0
 11
156.2862141520494
 21
184.6766086199894
 31
0.0
  0
LINE
  5
62A
330
1F
100
AcDbEntity
  8
Sichtbare_Kanten_TC_020513_DIN_
  6
Continuous
 62
     7
100
AcDbLine
 10
171.0697085235145
 20
180.1116315921934
 30
0.0
 11
170.1945574211294
 21
184.1117810780464
 31
0.0
  0
LINE
  5
62B
330
1F
100
AcDbEntity
  8
Sichtbare_Kanten_TC_020513_DIN_
  6
Continuous
 62
     7
100
AcDbLine
 10
154.8085629310534
 20
184.1117810780464
 30
0.0
 11
153.9334118286704
 21
180.1116315921943
 31
0.0
  0
LINE
  5
62C
330
1F
100
AcDbEntity
  8
Sichtbare_Kanten_TC_020513_DIN_
  6
Continuous
 62
     7
100
AcDbLine
 10
177.8015601760955
 20
153.7106613260854
 30
0.0
 11
177.8015601760965
 21
153.6616108010904
 31
0.0
  0
LINE
  5
62D
330
1F
100
AcDbEntity
  8
Sichtbare_Kanten_TC_020513_DIN_
  6
Continuous
 62
     7
100
AcDbLine
 10
177.8015601760924
 20
164.4918335634414
 30
0.0
 11
177.8015601760955
 21
153.7106613260854
 31
0.0
  0
LINE
  5
62E
330
1F
100
AcDbEntity
  8
Sichtbare_Kanten_TC_020513_DIN_
  6
Continuous
 62
     7
100
AcDbLine
 10
178.5015601760954
 20
161.1825553340914
 30
0.0
 11
177.8015601760955
 21
161.1825553340914
 31
0.0
  0
LINE
  5
62F
330
1F
100
AcDbEntity
  8
Sichtbare_Kanten_TC_020513_DIN_
  6
Continuous
 62
     7
100
AcDbLine
 10
178.5015601760954
 20
163.0195154365474
 30
0.0
 11
177.8015601760955
 21
163.0195154365474
 31
0.0
  0
LINE
  5
630
330
1F
100
AcDbEntity
  8
Sichtbare_Kanten_TC_020513_DIN_
  6
Continuous
 62
     7
100
AcDbLine
 10
175.0015601760964
 20
163.1616108010904
 30
0.0
 11
174.5015601760964
 21
163.6616108010904
 31
0.0
  0
LINE
  5
631
330
1F
100
AcDbEntity
  8
Sichtbare_Kanten_TC_020513_DIN_
  6
Continuous
 62
     7
100
AcDbLine
 10
175.0015601760964
 20
158.1616108010904
 30
0.0
 11
174.5015601760964
 21
157.6616108010904
 31
0.0
  0
LINE
  5
632
330
1F
100
AcDbEntity
  8
Sichtbare_Kanten_TC_020513_DIN_
  6
Continuous
 62
     7
100
AcDbLine
 10
176.0015601760964
 20
163.1616108010904
 30
0.0
 11
175.0015601760964
 21
163.1616108010904
 31
0.0
  0
LINE
  5
633
330
1F
100
AcDbEntity
  8
Sichtbare_Kanten_TC_020513_DIN_
  6
Continuous
 62
     7
100
AcDbLine
 10
176.0015601760964
 20
158.1616108010904
 30
0.0
 11
175.0015601760964
 21
158.1616108010904
 31
0.0
  0
LINE
  5
634
330
1F
100
AcDbEntity
  8
Sichtbare_Kanten_TC_020513_DIN_
  6
Continuous
 62
     7
100
AcDbLine
 10
176.5015601760964
 20
162.6616108010904
 30
0.0
 11
176.0015601760964
 21
162.6616108010904
 31
0.0
  0
LINE
  5
635
330
1F
100
AcDbEntity
  8
Sichtbare_Kanten_TC_020513_DIN_
  6
Continuous
 62
     7
100
AcDbLine
 10
176.5015601760964
 20
158.6616108010904
 30
0.0
 11
176.0015601760964
 21
158.6616108010904
 31
0.0
  0
LINE
  5
636
330
1F
100
AcDbEntity
  8
Sichtbare_Kanten_TC_020513_DIN_
  6
Continuous
 62
     7
100
AcDbLine
 10
178.5015601760964
 20
158.6616108010904
 30
0.0
 11
177.8015601760965
 21
158.6616108010904
 31
0.0
  0
LINE
  5
637
330
1F
100
AcDbEntity
  8
Sichtbare_Kanten_TC_020513_DIN_
  6
Continuous
 62
     7
100
AcDbLine
 10
150.0015601760964
 20
158.1616108010904
 30
0.0
 11
150.5015601760964
 21
157.6616108010904
 31
0.0
  0
LINE
  5
638
330
1F
100
AcDbEntity
  8
Sichtbare_Kanten_TC_020513_DIN_
  6
Continuous
 62
     7
100
AcDbLine
 10
150.0015601760964
 20
163.1616108010904
 30
0.0
 11
150.5015601760964
 21
163.6616108010904
 31
0.0
  0
LINE
  5
639
330
1F
100
AcDbEntity
  8
Sichtbare_Kanten_TC_020513_DIN_
  6
Continuous
 62
     7
100
AcDbLine
 10
150.0015601760964
 20
163.1616108010904
 30
0.0
 11
149.0015601760964
 21
163.1616108010904
 31
0.0
  0
LINE
  5
63A
330
1F
100
AcDbEntity
  8
Sichtbare_Kanten_TC_020513_DIN_
  6
Continuous
 62
     7
100
AcDbLine
 10
150.0015601760964
 20
158.1616108010904
 30
0.0
 11
149.0015601760964
 21
158.1616108010904
 31
0.0
  0
LINE
  5
63B
330
1F
100
AcDbEntity
  8
Sichtbare_Kanten_TC_020513_DIN_
  6
Continuous
 62
     7
100
AcDbLine
 10
149.0015601760964
 20
162.6616108010904
 30
0.0
 11
148.5015601760964
 21
162.6616108010904
 31
0.0
  0
LINE
  5
63C
330
1F
100
AcDbEntity
  8
Sichtbare_Kanten_TC_020513_DIN_
  6
Continuous
 62
     7
100
AcDbLine
 10
147.2015601760965
 20
158.6616108010904
 30
0.0
 11
146.5015601760964
 21
158.6616108010904
 31
0.0
  0
LINE
  5
63D
330
1F
100
AcDbEntity
  8
Sichtbare_Kanten_TC_020513_DIN_
  6
Continuous
 62
     7
100
AcDbLine
 10
149.0015601760964
 20
158.6616108010904
 30
0.0
 11
148.5015601760964
 21
158.6616108010904
 31
0.0
  0
LINE
  5
63E
330
1F
100
AcDbEntity
  8
Sichtbare_Kanten_TC_020513_DIN_
  6
Continuous
 62
     7
100
AcDbLine
 10
175.0015601760964
 20
163.1616108010904
 30
0.0
 11
175.0015601760964
 21
158.1616108010904
 31
0.0
  0
LINE
  5
63F
330
1F
100
AcDbEntity
  8
Sichtbare_Kanten_TC_020513_DIN_
  6
Continuous
 62
     7
100
AcDbLine
 10
176.0015601760964
 20
163.1616108010904
 30
0.0
 11
176.0015601760964
 21
158.1616108010904
 31
0.0
  0
LINE
  5
640
330
1F
100
AcDbEntity
  8
Sichtbare_Kanten_TC_020513_DIN_
  6
Continuous
 62
     7
100
AcDbLine
 10
178.5015601760954
 20
161.0089071564244
 30
0.0
 11
178.5015601760964
 21
158.6616108010904
 31
0.0
  0
LINE
  5
641
330
1F
100
AcDbEntity
  8
Sichtbare_Kanten_TC_020513_DIN_
  6
Continuous
 62
     7
100
AcDbLine
 10
178.5015601760954
 20
161.0089071564244
 30
0.0
 11
178.5015601760954
 21
161.1825553340914
 31
0.0
  0
LINE
  5
642
330
1F
100
AcDbEntity
  8
Sichtbare_Kanten_TC_020513_DIN_
  6
Continuous
 62
     7
100
AcDbLine
 10
178.5015601760954
 20
161.0089071564244
 30
0.0
 11
177.8015601760955
 21
161.0089071564244
 31
0.0
  0
LINE
  5
643
330
1F
100
AcDbEntity
  8
Sichtbare_Kanten_TC_020513_DIN_
  6
Continuous
 62
     7
100
AcDbLine
 10
178.5015601760954
 20
163.0195154365474
 30
0.0
 11
178.5015601760954
 21
161.1825553340914
 31
0.0
  0
LINE
  5
644
330
1F
100
AcDbEntity
  8
Sichtbare_Kanten_TC_020513_DIN_
  6
Continuous
 62
     7
100
AcDbLine
 10
150.0015601760964
 20
163.1616108010904
 30
0.0
 11
150.0015601760964
 21
158.1616108010904
 31
0.0
  0
LINE
  5
645
330
1F
100
AcDbEntity
  8
Sichtbare_Kanten_TC_020513_DIN_
  6
Continuous
 62
     7
100
AcDbLine
 10
149.0015601760964
 20
163.1616108010904
 30
0.0
 11
149.0015601760964
 21
158.1616108010904
 31
0.0
  0
LINE
  5
646
330
1F
100
AcDbEntity
  8
Sichtbare_Kanten_TC_020513_DIN_
  6
Continuous
 62
     7
100
AcDbLine
 10
146.5015601760954
 20
161.0089071564244
 30
0.0
 11
146.5015601760964
 21
158.6616108010904
 31
0.0
  0
LINE
  5
647
330
1F
100
AcDbEntity
  8
Sichtbare_Kanten_TC_020513_DIN_
  6
Continuous
 62
     7
100
AcDbLine
 10
147.2015601760954
 20
161.0089071564244
 30
0.0
 11
146.5015601760954
 21
161.0089071564244
 31
0.0
  0
LINE
  5
648
330
1F
100
AcDbEntity
  8
Sichtbare_Kanten_TC_020513_DIN_
  6
Continuous
 62
     7
100
AcDbLine
 10
146.5015601760954
 20
161.0089071564244
 30
0.0
 11
146.5015601760954
 21
161.1825553340914
 31
0.0
  0
LINE
  5
649
330
1F
100
AcDbEntity
  8
Sichtbare_Kanten_TC_020513_DIN_
  6
Continuous
 62
     7
100
AcDbLine
 10
146.5015601760954
 20
163.0195154365474
 30
0.0
 11
146.5015601760954
 21
161.1825553340914
 31
0.0
  0
LINE
  5
64A
330
1F
100
AcDbEntity
  8
Sichtbare_Kanten_TC_020513_DIN_
  6
Continuous
 62
     7
100
AcDbLine
 10
146.5015601760954
 20
161.1825553340914
 30
0.0
 11
147.2015601760954
 21
161.1825553340914
 31
0.0
  0
LINE
  5
64B
330
1F
100
AcDbEntity
  8
Sichtbare_Kanten_TC_020513_DIN_
  6
Continuous
 62
     7
100
AcDbLine
 10
146.5015601760954
 20
163.0195154365474
 30
0.0
 11
147.2015601760954
 21
163.0195154365474
 31
0.0
  0
LINE
  5
64C
330
1F
100
AcDbEntity
  8
Sichtbare_Kanten_TC_020513_DIN_
  6
Continuous
 62
     7
100
AcDbLine
 10
177.7015601760984
 20
184.0914179565384
 30
0.0
 11
177.5015601760983
 21
184.2914179565384
 31
0.0
  0
LINE
  5
64D
330
1F
100
AcDbEntity
  8
Sichtbare_Kanten_TC_020513_DIN_
  6
Continuous
 62
     7
100
AcDbLine
 10
176.1015601760985
 20
184.0914179565384
 30
0.0
 11
176.3015601760984
 21
184.2914179565384
 31
0.0
  0
LINE
  5
64E
330
1F
100
AcDbEntity
  8
Sichtbare_Kanten_TC_020513_DIN_
  6
Continuous
 62
     7
100
AcDbLine
 10
177.7015601760984
 20
184.0914179565384
 30
0.0
 11
177.7015601760965
 21
178.5154103189454
 31
0.0
  0
LINE
  5
64F
330
1F
100
AcDbEntity
  8
Sichtbare_Kanten_TC_020513_DIN_
  6
Continuous
 62
     7
100
AcDbLine
 10
177.5015601760964
 20
178.5391664508504
 30
0.0
 11
177.5015601760983
 21
184.2914179565384
 31
0.0
  0
LINE
  5
650
330
1F
100
AcDbEntity
  8
Sichtbare_Kanten_TC_020513_DIN_
  6
Continuous
 62
     7
100
AcDbLine
 10
176.3015601760984
 20
184.2914179565384
 30
0.0
 11
176.3015601760965
 21
178.5844961358803
 31
0.0
  0
LINE
  5
651
330
1F
100
AcDbEntity
  8
Sichtbare_Kanten_TC_020513_DIN_
  6
Continuous
 62
     7
100
AcDbLine
 10
176.1015601760964
 20
178.5844961358803
 30
0.0
 11
176.1015601760985
 21
184.0914179565384
 31
0.0
  0
LINE
  5
652
330
1F
100
AcDbEntity
  8
Sichtbare_Kanten_TC_020513_DIN_
  6
Continuous
 62
     7
100
AcDbLine
 10
175.3015601760984
 20
180.7914179565384
 30
0.0
 11
175.8789104452884
 21
181.7914179565384
 31
0.0
  0
LINE
  5
653
330
1F
100
AcDbEntity
  8
Sichtbare_Kanten_TC_020513_DIN_
  6
Continuous
 62
     7
100
AcDbLine
 10
176.1015601760985
 20
181.7914179565384
 30
0.0
 11
175.8789104452884
 21
181.7914179565384
 31
0.0
  0
LINE
  5
654
330
1F
100
AcDbEntity
  8
Sichtbare_Kanten_TC_020513_DIN_
  6
Continuous
 62
     7
100
AcDbLine
 10
179.6015601760985
 20
180.5414179565384
 30
0.0
 11
179.0015601760983
 21
180.5414179565384
 31
0.0
  0
LINE
  5
655
330
1F
100
AcDbEntity
  8
Sichtbare_Kanten_TC_020513_DIN_
  6
Continuous
 62
     7
100
AcDbLine
 10
179.6015601760985
 20
177.0414179565384
 30
0.0
 11
179.0015601760983
 21
177.0414179565384
 31
0.0
  0
LINE
  5
656
330
1F
100
AcDbEntity
  8
Sichtbare_Kanten_TC_020513_DIN_
  6
Continuous
 62
     7
100
AcDbLine
 10
179.8015601760984
 20
180.1950077950244
 30
0.0
 11
179.6015601760985
 21
180.5414179565384
 31
0.0
  0
LINE
  5
657
330
1F
100
AcDbEntity
  8
Sichtbare_Kanten_TC_020513_DIN_
  6
Continuous
 62
     7
100
AcDbLine
 10
179.8015601760984
 20
177.3878281180524
 30
0.0
 11
179.6015601760985
 21
177.0414179565384
 31
0.0
  0
LINE
  5
658
330
1F
100
AcDbEntity
  8
Sichtbare_Kanten_TC_020513_DIN_
  6
Continuous
 62
     7
100
AcDbLine
 10
177.8015601760984
 20
180.3914179565384
 30
0.0
 11
177.7015601760984
 21
180.3914179565384
 31
0.0
  0
LINE
  5
659
330
1F
100
AcDbEntity
  8
Sichtbare_Kanten_TC_020513_DIN_
  6
Continuous
 62
     7
100
AcDbLine
 10
175.3015601760984
 20
180.7914179565384
 30
0.0
 11
175.3015601760974
 21
178.5844961358803
 31
0.0
  0
LINE
  5
65A
330
1F
100
AcDbEntity
  8
Sichtbare_Kanten_TC_020513_DIN_
  6
Continuous
 62
     7
100
AcDbLine
 10
175.8789104452884
 20
181.7914179565384
 30
0.0
 11
175.8789104452874
 21
178.5844961358803
 31
0.0
  0
LINE
  5
65B
330
1F
100
AcDbEntity
  8
Sichtbare_Kanten_TC_020513_DIN_
  6
Continuous
 62
     7
100
AcDbLine
 10
179.6015601760985
 20
180.5414179565384
 30
0.0
 11
179.6015601760985
 21
177.0414179565384
 31
0.0
  0
LINE
  5
65C
330
1F
100
AcDbEntity
  8
Sichtbare_Kanten_TC_020513_DIN_
  6
Continuous
 62
     7
100
AcDbLine
 10
179.8015601760984
 20
180.1950077950244
 30
0.0
 11
179.8015601760984
 21
177.3878281180524
 31
0.0
  0
LINE
  5
65D
330
1F
100
AcDbEntity
  8
Sichtbare_Kanten_TC_020513_DIN_
  6
Continuous
 62
     7
100
AcDbLine
 10
147.3015601760984
 20
184.0914179565384
 30
0.0
 11
147.5015601760983
 21
184.2914179565384
 31
0.0
  0
LINE
  5
65E
330
1F
100
AcDbEntity
  8
Sichtbare_Kanten_TC_020513_DIN_
  6
Continuous
 62
     7
100
AcDbLine
 10
148.7015601760984
 20
184.2914179565384
 30
0.0
 11
147.5015601760983
 21
184.2914179565384
 31
0.0
  0
LINE
  5
65F
330
1F
100
AcDbEntity
  8
Sichtbare_Kanten_TC_020513_DIN_
  6
Continuous
 62
     7
100
AcDbLine
 10
148.9015601760984
 20
184.0914179565384
 30
0.0
 11
148.7015601760984
 21
184.2914179565384
 31
0.0
  0
LINE
  5
660
330
1F
100
AcDbEntity
  8
Sichtbare_Kanten_TC_020513_DIN_
  6
Continuous
 62
     7
100
AcDbLine
 10
149.7015601760984
 20
180.7914179565384
 30
0.0
 11
149.1242099069084
 21
181.7914179565384
 31
0.0
  0
LINE
  5
661
330
1F
100
AcDbEntity
  8
Sichtbare_Kanten_TC_020513_DIN_
  6
Continuous
 62
     7
100
AcDbLine
 10
149.1242099069084
 20
181.7914179565384
 30
0.0
 11
148.9015601760984
 21
181.7914179565384
 31
0.0
  0
LINE
  5
662
330
1F
100
AcDbEntity
  8
Sichtbare_Kanten_TC_020513_DIN_
  6
Continuous
 62
     7
100
AcDbLine
 10
146.0015601760983
 20
180.5414179565384
 30
0.0
 11
145.4015601760984
 21
180.5414179565384
 31
0.0
  0
LINE
  5
663
330
1F
100
AcDbEntity
  8
Sichtbare_Kanten_TC_020513_DIN_
  6
Continuous
 62
     7
100
AcDbLine
 10
146.0015601760983
 20
177.0414179565384
 30
0.0
 11
145.4015601760984
 21
177.0414179565384
 31
0.0
  0
LINE
  5
664
330
1F
100
AcDbEntity
  8
Sichtbare_Kanten_TC_020513_DIN_
  6
Continuous
 62
     7
100
AcDbLine
 10
145.2015601760984
 20
177.3878281180524
 30
0.0
 11
145.4015601760984
 21
177.0414179565384
 31
0.0
  0
LINE
  5
665
330
1F
100
AcDbEntity
  8
Sichtbare_Kanten_TC_020513_DIN_
  6
Continuous
 62
     7
100
AcDbLine
 10
145.2015601760984
 20
180.1950077950244
 30
0.0
 11
145.4015601760984
 21
180.5414179565384
 31
0.0
  0
LINE
  5
666
330
1F
100
AcDbEntity
  8
Sichtbare_Kanten_TC_020513_DIN_
  6
Continuous
 62
     7
100
AcDbLine
 10
147.3015601760984
 20
180.3914179565384
 30
0.0
 11
147.2015601760984
 21
180.3914179565384
 31
0.0
  0
LINE
  5
667
330
1F
100
AcDbEntity
  8
Sichtbare_Kanten_TC_020513_DIN_
  6
Continuous
 62
     7
100
AcDbLine
 10
147.3015601760965
 20
178.5154103189454
 30
0.0
 11
147.3015601760984
 21
184.0914179565384
 31
0.0
  0
LINE
  5
668
330
1F
100
AcDbEntity
  8
Sichtbare_Kanten_TC_020513_DIN_
  6
Continuous
 62
     7
100
AcDbLine
 10
147.5015601760983
 20
184.2914179565384
 30
0.0
 11
147.5015601760964
 21
178.5391664508504
 31
0.0
  0
LINE
  5
669
330
1F
100
AcDbEntity
  8
Sichtbare_Kanten_TC_020513_DIN_
  6
Continuous
 62
     7
100
AcDbLine
 10
148.9015601760984
 20
184.0914179565384
 30
0.0
 11
148.9015601760964
 21
178.5844961358803
 31
0.0
  0
LINE
  5
66A
330
1F
100
AcDbEntity
  8
Sichtbare_Kanten_TC_020513_DIN_
  6
Continuous
 62
     7
100
AcDbLine
 10
148.7015601760965
 20
178.5844961358803
 30
0.0
 11
148.7015601760984
 21
184.2914179565384
 31
0.0
  0
LINE
  5
66B
330
1F
100
AcDbEntity
  8
Sichtbare_Kanten_TC_020513_DIN_
  6
Continuous
 62
     7
100
AcDbLine
 10
149.7015601760984
 20
180.7914179565384
 30
0.0
 11
149.7015601760975
 21
178.5844961358803
 31
0.0
  0
LINE
  5
66C
330
1F
100
AcDbEntity
  8
Sichtbare_Kanten_TC_020513_DIN_
  6
Continuous
 62
     7
100
AcDbLine
 10
149.1242099069084
 20
181.7914179565384
 30
0.0
 11
149.1242099069084
 21
178.5844961358803
 31
0.0
  0
LINE
  5
66D
330
1F
100
AcDbEntity
  8
Sichtbare_Kanten_TC_020513_DIN_
  6
Continuous
 62
     7
100
AcDbLine
 10
145.4015601760984
 20
180.5414179565384
 30
0.0
 11
145.4015601760984
 21
177.0414179565384
 31
0.0
  0
LINE
  5
66E
330
1F
100
AcDbEntity
  8
Sichtbare_Kanten_TC_020513_DIN_
  6
Continuous
 62
     7
100
AcDbLine
 10
145.2015601760984
 20
180.1950077950244
 30
0.0
 11
145.2015601760984
 21
177.3878281180524
 31
0.0
  0
LINE
  5
66F
330
1F
100
AcDbEntity
  8
Sichtbare_Kanten_TC_020513_DIN_
  6
Continuous
 62
     7
100
AcDbLine
 10
112.3803146826064
 20
62.97762230841434
 30
0.0
 11
112.3803146826064
 21
64.17762230841436
 31
0.0
  0
LINE
  5
670
330
1F
100
AcDbEntity
  8
Sichtbare_Kanten_TC_020513_DIN_
  6
Continuous
 62
     7
100
AcDbLine
 10
101.3803146826058
 20
62.97762230841434
 30
0.0
 11
101.3803146826058
 21
64.17762230841436
 31
0.0
  0
LINE
  5
671
330
1F
100
AcDbEntity
  8
Sichtbare_Kanten_TC_020513_DIN_
  6
Continuous
 62
     7
100
AcDbLine
 10
88.34809911939419
 20
93.27762230841415
 30
0.0
 11
89.49855416505079
 21
93.27762230841435
 31
0.0
  0
LINE
  5
672
330
1F
100
AcDbEntity
  8
Sichtbare_Kanten_TC_020513_DIN_
  6
Continuous
 62
     7
100
AcDbLine
 10
103.7456952980809
 20
93.27762230841617
 30
0.0
 11
89.49855416505079
 21
93.27762230841435
 31
0.0
  0
LINE
  5
673
330
1F
100
AcDbEntity
  8
Sichtbare_Kanten_TC_020513_DIN_
  6
Continuous
 62
     7
100
AcDbLine
 10
110.2097125683733
 20
93.27762230841475
 30
0.0
 11
103.7456952980809
 21
93.27762230841617
 31
0.0
  0
LINE
  5
674
330
1F
100
AcDbEntity
  8
Sichtbare_Kanten_TC_020513_DIN_
  6
Continuous
 62
     7
100
AcDbLine
 10
110.4803146826064
 20
93.27762230841435
 30
0.0
 11
110.2097125683733
 21
93.27762230841475
 31
0.0
  0
LINE
  5
675
330
1F
100
AcDbEntity
  8
Sichtbare_Kanten_TC_020513_DIN_
  6
Continuous
 62
     7
100
AcDbLine
 10
110.2097125683733
 20
62.67762230841476
 30
0.0
 11
110.4803146826064
 21
62.67762230841433
 31
0.0
  0
LINE
  5
676
330
1F
100
AcDbEntity
  8
Sichtbare_Kanten_TC_020513_DIN_
  6
Continuous
 62
     7
100
AcDbLine
 10
103.7456952980809
 20
62.67762230841615
 30
0.0
 11
110.2097125683733
 21
62.67762230841476
 31
0.0
  0
LINE
  5
677
330
1F
100
AcDbEntity
  8
Sichtbare_Kanten_TC_020513_DIN_
  6
Continuous
 62
     7
100
AcDbLine
 10
89.49855416505079
 20
62.67762230841424
 30
0.0
 11
103.7456952980809
 21
62.67762230841615
 31
0.0
  0
LINE
  5
678
330
1F
100
AcDbEntity
  8
Sichtbare_Kanten_TC_020513_DIN_
  6
Continuous
 62
     7
100
AcDbLine
 10
89.49855416505079
 20
62.67762230841424
 30
0.0
 11
88.34809911939419
 21
62.67762230841416
 31
0.0
  0
LINE
  5
679
330
1F
100
AcDbEntity
  8
Sichtbare_Kanten_TC_020513_DIN_
  6
Continuous
 62
     7
100
AcDbLine
 10
89.93790902996398
 20
91.97762230841005
 30
0.0
 11
92.66773463101117
 21
91.97762230841005
 31
0.0
  0
LINE
  5
67A
330
1F
100
AcDbEntity
  8
Sichtbare_Kanten_TC_020513_DIN_
  6
Continuous
 62
     7
100
AcDbLine
 10
101.3803146826058
 20
91.97762230841096
 30
0.0
 11
92.66773463101117
 21
91.97762230841005
 31
0.0
  0
LINE
  5
67B
330
1F
100
AcDbEntity
  8
Sichtbare_Kanten_TC_020513_DIN_
  6
Continuous
 62
     7
100
AcDbLine
 10
89.74240178254422
 20
91.97762230841025
 30
0.0
 11
89.93790902996398
 21
91.97762230841005
 31
0.0
  0
LINE
  5
67C
330
1F
100
AcDbEntity
  8
Sichtbare_Kanten_TC_020513_DIN_
  6
Continuous
 62
     7
100
AcDbLine
 10
92.66773463101117
 20
63.97762230840996
 30
0.0
 11
101.3803146826058
 21
63.97762230841093
 31
0.0
  0
LINE
  5
67D
330
1F
100
AcDbEntity
  8
Sichtbare_Kanten_TC_020513_DIN_
  6
Continuous
 62
     7
100
AcDbLine
 10
92.66773463101117
 20
63.97762230840996
 30
0.0
 11
89.93790902996375
 21
63.97762230841005
 31
0.0
  0
LINE
  5
67E
330
1F
100
AcDbEntity
  8
Sichtbare_Kanten_TC_020513_DIN_
  6
Continuous
 62
     7
100
AcDbLine
 10
89.93790902996375
 20
63.97762230841005
 30
0.0
 11
89.74240178254422
 21
63.97762230841025
 31
0.0
  0
LINE
  5
67F
330
1F
100
AcDbEntity
  8
Sichtbare_Kanten_TC_020513_DIN_
  6
Continuous
 62
     7
100
AcDbLine
 10
87.57157563034696
 20
91.97762230841045
 30
0.0
 11
89.74240178254422
 21
91.97762230841025
 31
0.0
  0
LINE
  5
680
330
1F
100
AcDbEntity
  8
Sichtbare_Kanten_TC_020513_DIN_
  6
Continuous
 62
     7
100
AcDbLine
 10
89.74240178254422
 20
63.97762230841025
 30
0.0
 11
87.57157563034696
 21
63.97762230841045
 31
0.0
  0
LINE
  5
681
330
1F
100
AcDbEntity
  8
Sichtbare_Kanten_TC_020513_DIN_
  6
Continuous
 62
     7
100
AcDbLine
 10
87.94767057420142
 20
94.44405422165434
 30
0.0
 11
87.94767057419949
 21
94.47762230841417
 31
0.0
  0
LINE
  5
682
330
1F
100
AcDbEntity
  8
Sichtbare_Kanten_TC_020513_DIN_
  6
Continuous
 62
     7
100
AcDbLine
 10
87.94767057419949
 20
94.47762230841417
 30
0.0
 11
86.48921797919661
 21
94.47762230841207
 31
0.0
  0
LINE
  5
683
330
1F
100
AcDbEntity
  8
Sichtbare_Kanten_TC_020513_DIN_
  6
Continuous
 62
     7
100
AcDbLine
 10
87.94767057419949
 20
61.51119039517425
 30
0.0
 11
87.94767057419949
 21
61.47762230841417
 31
0.0
  0
LINE
  5
684
330
1F
100
AcDbEntity
  8
Sichtbare_Kanten_TC_020513_DIN_
  6
Continuous
 62
     7
100
AcDbLine
 10
87.94767057419949
 20
61.47762230841417
 30
0.0
 11
86.48921797919661
 21
61.47762230841207
 31
0.0
  0
LINE
  5
685
330
1F
100
AcDbEntity
  8
Sichtbare_Kanten_TC_020513_DIN_
  6
Continuous
 62
     7
100
AcDbLine
 10
84.96468496416469
 20
67.97762230841315
 30
0.0
 11
84.60857031985665
 21
66.20557171391076
 31
0.0
  0
LINE
  5
686
330
1F
100
AcDbEntity
  8
Sichtbare_Kanten_TC_020513_DIN_
  6
Continuous
 62
     7
100
AcDbLine
 10
84.96468496416469
 20
69.81842070337186
 30
0.0
 11
84.96468496416469
 21
67.97762230841315
 31
0.0
  0
LINE
  5
687
330
1F
100
AcDbEntity
  8
Sichtbare_Kanten_TC_020513_DIN_
  6
Continuous
 62
     7
100
AcDbLine
 10
84.96468496416469
 20
87.97762230841315
 30
0.0
 11
84.96468496416469
 21
86.13682391345444
 31
0.0
  0
LINE
  5
688
330
1F
100
AcDbEntity
  8
Sichtbare_Kanten_TC_020513_DIN_
  6
Continuous
 62
     7
100
AcDbLine
 10
84.60857031985665
 20
89.74967290291474
 30
0.0
 11
84.96468496416469
 21
87.97762230841315
 31
0.0
  0
LINE
  5
689
330
1F
100
AcDbEntity
  8
Sichtbare_Kanten_TC_020513_DIN_
  6
Continuous
 62
     7
100
AcDbLine
 10
110.4803146826064
 20
94.47762230841434
 30
0.0
 11
110.4803146826064
 21
93.27762230841435
 31
0.0
  0
LINE
  5
68A
330
1F
100
AcDbEntity
  8
Sichtbare_Kanten_TC_020513_DIN_
  6
Continuous
 62
     7
100
AcDbLine
 10
110.4803146826064
 20
62.67762230841433
 30
0.0
 11
110.4803146826064
 21
61.47762230841434
 31
0.0
  0
LINE
  5
68B
330
1F
100
AcDbEntity
  8
Sichtbare_Kanten_TC_020513_DIN_
  6
Continuous
 62
     7
100
AcDbLine
 10
87.57151316821546
 20
63.97704912047965
 30
0.0
 11
87.57151316821546
 21
62.97384948103937
 31
0.0
  0
LINE
  5
68C
330
1F
100
AcDbEntity
  8
Sichtbare_Kanten_TC_020513_DIN_
  6
Continuous
 62
     7
100
AcDbLine
 10
87.57151316821546
 20
92.98139513578155
 30
0.0
 11
87.57151316821546
 21
91.97819549634116
 31
0.0
  0
LINE
  5
68D
330
1F
100
AcDbEntity
  8
Sichtbare_Kanten_TC_020513_DIN_
  6
Continuous
 62
     7
100
AcDbLine
 10
87.37248778314142
 20
86.73550719218824
 30
0.0
 11
87.37248778314142
 21
69.21973742464075
 31
0.0
  0
LINE
  5
68E
330
1F
100
AcDbEntity
  8
Sichtbare_Kanten_TC_020513_DIN_
  6
Continuous
 62
     7
100
AcDbLine
 10
89.49855416505079
 20
61.47762230841434
 30
0.0
 11
87.94767057419949
 21
61.47762230841417
 31
0.0
  0
LINE
  5
68F
330
1F
100
AcDbEntity
  8
Sichtbare_Kanten_TC_020513_DIN_
  6
Continuous
 62
     7
100
AcDbLine
 10
89.49855416505079
 20
61.47762230841434
 30
0.0
 11
103.7456952980809
 21
61.47762230841616
 31
0.0
  0
LINE
  5
690
330
1F
100
AcDbEntity
  8
Sichtbare_Kanten_TC_020513_DIN_
  6
Continuous
 62
     7
100
AcDbLine
 10
103.7456952980809
 20
61.47762230841616
 30
0.0
 11
110.2097125683733
 21
61.47762230841474
 31
0.0
  0
LINE
  5
691
330
1F
100
AcDbEntity
  8
Sichtbare_Kanten_TC_020513_DIN_
  6
Continuous
 62
     7
100
AcDbLine
 10
110.2097125683733
 20
61.47762230841474
 30
0.0
 11
110.4803146826064
 21
61.47762230841434
 31
0.0
  0
LINE
  5
692
330
1F
100
AcDbEntity
  8
Sichtbare_Kanten_TC_020513_DIN_
  6
Continuous
 62
     7
100
AcDbLine
 10
110.4803146826064
 20
94.47762230841434
 30
0.0
 11
110.2097125683733
 21
94.47762230841474
 31
0.0
  0
LINE
  5
693
330
1F
100
AcDbEntity
  8
Sichtbare_Kanten_TC_020513_DIN_
  6
Continuous
 62
     7
100
AcDbLine
 10
110.2097125683733
 20
94.47762230841474
 30
0.0
 11
103.7456952980808
 21
94.47762230841616
 31
0.0
  0
LINE
  5
694
330
1F
100
AcDbEntity
  8
Sichtbare_Kanten_TC_020513_DIN_
  6
Continuous
 62
     7
100
AcDbLine
 10
103.7456952980808
 20
94.47762230841616
 30
0.0
 11
89.49855416505079
 21
94.47762230841434
 31
0.0
  0
LINE
  5
695
330
1F
100
AcDbEntity
  8
Sichtbare_Kanten_TC_020513_DIN_
  6
Continuous
 62
     7
100
AcDbLine
 10
87.94767057419949
 20
94.47762230841417
 30
0.0
 11
89.49855416505079
 21
94.47762230841434
 31
0.0
  0
LINE
  5
696
330
1F
100
AcDbEntity
  8
Sichtbare_Kanten_TC_020513_DIN_
  6
Continuous
 62
     7
100
AcDbLine
 10
87.1749299131684
 20
92.07762230841425
 30
0.0
 11
87.1749299131684
 21
88.47762230841366
 31
0.0
  0
LINE
  5
697
330
1F
100
AcDbEntity
  8
Sichtbare_Kanten_TC_020513_DIN_
  6
Continuous
 62
     7
100
AcDbLine
 10
87.1749299131684
 20
67.47762230841536
 30
0.0
 11
87.1749299131684
 21
63.87762230841426
 31
0.0
  0
LINE
  5
698
330
1F
100
AcDbEntity
  8
Sichtbare_Kanten_TC_020513_DIN_
  6
Continuous
 62
     7
100
AcDbLine
 10
86.01581892162142
 20
63.87762230841435
 30
0.0
 11
86.01581892162142
 21
67.47762230841377
 31
0.0
  0
LINE
  5
699
330
1F
100
AcDbEntity
  8
Sichtbare_Kanten_TC_020513_DIN_
  6
Continuous
 62
     7
100
AcDbLine
 10
84.60857031985665
 20
63.87762230841275
 30
0.0
 11
84.60857031985665
 21
66.20557171391076
 31
0.0
  0
LINE
  5
69A
330
1F
100
AcDbEntity
  8
Sichtbare_Kanten_TC_020513_DIN_
  6
Continuous
 62
     7
100
AcDbLine
 10
84.60857031985665
 20
89.74967290291474
 30
0.0
 11
84.60857031985665
 21
92.07762230841277
 31
0.0
  0
LINE
  5
69B
330
1F
100
AcDbEntity
  8
Sichtbare_Kanten_TC_020513_DIN_
  6
Continuous
 62
     7
100
AcDbLine
 10
86.01581892162142
 20
88.47762230841275
 30
0.0
 11
86.01581892162142
 21
92.07762230841436
 31
0.0
  0
LINE
  5
69C
330
1F
100
AcDbEntity
  8
Sichtbare_Kanten_TC_020513_DIN_
  6
Continuous
 62
     7
100
AcDbLine
 10
84.27431310687314
 20
84.19296833245835
 30
0.0
 11
84.27431310687302
 21
71.76227628437474
 31
0.0
  0
LINE
  5
69D
330
1F
100
AcDbEntity
  8
Sichtbare_Kanten_TC_020513_DIN_
  6
Continuous
 62
     7
100
AcDbLine
 10
83.40828770308872
 20
71.76227628437377
 30
0.0
 11
83.40828770308872
 21
84.19296833245826
 31
0.0
  0
LINE
  5
69E
330
1F
100
AcDbEntity
  8
Sichtbare_Kanten_TC_020513_DIN_
  6
Continuous
 62
     7
100
AcDbLine
 10
84.49262369832877
 20
70.51494045378195
 30
0.0
 11
87.10453859071026
 21
69.52518826255135
 31
0.0
  0
LINE
  5
69F
330
1F
100
AcDbEntity
  8
Sichtbare_Kanten_TC_020513_DIN_
  6
Continuous
 62
     7
100
AcDbLine
 10
86.04387841893015
 20
69.40947396099327
 30
0.0
 11
83.73439103647524
 21
70.28462506337826
 31
0.0
  0
LINE
  5
6A0
330
1F
100
AcDbEntity
  8
Sichtbare_Kanten_TC_020513_DIN_
  6
Continuous
 62
     7
100
AcDbLine
 10
87.10453859071026
 20
86.43005635427835
 30
0.0
 11
84.49262369832877
 21
85.44030416305046
 31
0.0
  0
LINE
  5
6A1
330
1F
100
AcDbEntity
  8
Sichtbare_Kanten_TC_020513_DIN_
  6
Continuous
 62
     7
100
AcDbLine
 10
83.73439103647524
 20
85.67061955345363
 30
0.0
 11
86.04387841893094
 21
86.54577065583695
 31
0.0
  0
LINE
  5
6A2
330
1F
100
AcDbEntity
  8
Sichtbare_Kanten_TC_020513_DIN_
  6
Continuous
 62
     7
100
AcDbLine
 10
101.3130913371003
 20
65.47762230840894
 30
0.0
 11
101.8130913371003
 21
65.97762230840894
 31
0.0
  0
LINE
  5
6A3
330
1F
100
AcDbEntity
  8
Sichtbare_Kanten_TC_020513_DIN_
  6
Continuous
 62
     7
100
AcDbLine
 10
96.31309133710033
 20
65.47762230840894
 30
0.0
 11
95.81309133710033
 21
65.97762230840894
 31
0.0
  0
LINE
  5
6A4
330
1F
100
AcDbEntity
  8
Sichtbare_Kanten_TC_020513_DIN_
  6
Continuous
 62
     7
100
AcDbLine
 10
101.3130913371003
 20
64.47762230840894
 30
0.0
 11
101.3130913371003
 21
65.47762230840894
 31
0.0
  0
LINE
  5
6A5
330
1F
100
AcDbEntity
  8
Sichtbare_Kanten_TC_020513_DIN_
  6
Continuous
 62
     7
100
AcDbLine
 10
96.31309133710033
 20
64.47762230840894
 30
0.0
 11
96.31309133710033
 21
65.47762230840894
 31
0.0
  0
LINE
  5
6A6
330
1F
100
AcDbEntity
  8
Sichtbare_Kanten_TC_020513_DIN_
  6
Continuous
 62
     7
100
AcDbLine
 10
100.8130913371003
 20
63.97762230840905
 30
0.0
 11
100.8130913371003
 21
64.47762230840894
 31
0.0
  0
LINE
  5
6A7
330
1F
100
AcDbEntity
  8
Sichtbare_Kanten_TC_020513_DIN_
  6
Continuous
 62
     7
100
AcDbLine
 10
96.81309133710033
 20
63.97762230840905
 30
0.0
 11
96.81309133710033
 21
64.47762230840894
 31
0.0
  0
LINE
  5
6A8
330
1F
100
AcDbEntity
  8
Sichtbare_Kanten_TC_020513_DIN_
  6
Continuous
 62
     7
100
AcDbLine
 10
96.31309133710033
 20
90.47762230840894
 30
0.0
 11
95.81309133710033
 21
89.97762230840894
 31
0.0
  0
LINE
  5
6A9
330
1F
100
AcDbEntity
  8
Sichtbare_Kanten_TC_020513_DIN_
  6
Continuous
 62
     7
100
AcDbLine
 10
101.3130913371003
 20
90.47762230840894
 30
0.0
 11
101.8130913371003
 21
89.97762230840894
 31
0.0
  0
LINE
  5
6AA
330
1F
100
AcDbEntity
  8
Sichtbare_Kanten_TC_020513_DIN_
  6
Continuous
 62
     7
100
AcDbLine
 10
101.3130913371003
 20
90.47762230840894
 30
0.0
 11
101.3130913371003
 21
91.47762230840894
 31
0.0
  0
LINE
  5
6AB
330
1F
100
AcDbEntity
  8
Sichtbare_Kanten_TC_020513_DIN_
  6
Continuous
 62
     7
100
AcDbLine
 10
96.31309133710033
 20
90.47762230840894
 30
0.0
 11
96.31309133710033
 21
91.47762230840894
 31
0.0
  0
LINE
  5
6AC
330
1F
100
AcDbEntity
  8
Sichtbare_Kanten_TC_020513_DIN_
  6
Continuous
 62
     7
100
AcDbLine
 10
100.8130913371003
 20
91.47762230840894
 30
0.0
 11
100.8130913371003
 21
91.97762230840894
 31
0.0
  0
LINE
  5
6AD
330
1F
100
AcDbEntity
  8
Sichtbare_Kanten_TC_020513_DIN_
  6
Continuous
 62
     7
100
AcDbLine
 10
96.81309133710033
 20
91.47762230840894
 30
0.0
 11
96.81309133710033
 21
91.97762230840894
 31
0.0
  0
LINE
  5
6AE
330
1F
100
AcDbEntity
  8
Sichtbare_Kanten_TC_020513_DIN_
  6
Continuous
 62
     7
100
AcDbLine
 10
101.3130913371003
 20
65.47762230840894
 30
0.0
 11
96.31309133710033
 21
65.47762230840894
 31
0.0
  0
LINE
  5
6AF
330
1F
100
AcDbEntity
  8
Sichtbare_Kanten_TC_020513_DIN_
  6
Continuous
 62
     7
100
AcDbLine
 10
101.3130913371003
 20
64.47762230840894
 30
0.0
 11
96.31309133710033
 21
64.47762230840894
 31
0.0
  0
LINE
  5
6B0
330
1F
100
AcDbEntity
  8
Sichtbare_Kanten_TC_020513_DIN_
  6
Continuous
 62
     7
100
AcDbLine
 10
101.3130913371003
 20
90.47762230840894
 30
0.0
 11
96.31309133710033
 21
90.47762230840894
 31
0.0
  0
LINE
  5
6B1
330
1F
100
AcDbEntity
  8
Sichtbare_Kanten_TC_020513_DIN_
  6
Continuous
 62
     7
100
AcDbLine
 10
101.3130913371003
 20
91.47762230840894
 30
0.0
 11
96.31309133710033
 21
91.47762230840894
 31
0.0
  0
LINE
  5
6B2
330
1F
100
AcDbEntity
  8
Sichtbare_Kanten_TC_020513_DIN_
  6
Continuous
 62
     7
100
AcDbLine
 10
103.8130913371003
 20
68.47762230841255
 30
0.0
 11
103.8130913371003
 21
65.97762230841175
 31
0.0
  0
LINE
  5
6B3
330
1F
100
AcDbEntity
  8
Sichtbare_Kanten_TC_020513_DIN_
  6
Continuous
 62
     7
100
AcDbLine
 10
87.1749299131684
 20
65.97762230841175
 30
0.0
 11
103.8130913371003
 21
65.97762230841175
 31
0.0
  0
LINE
  5
6B4
330
1F
100
AcDbEntity
  8
Sichtbare_Kanten_TC_020513_DIN_
  6
Continuous
 62
     7
100
AcDbLine
 10
103.8130913371003
 20
89.97762230841184
 30
0.0
 11
103.8130913371003
 21
87.47762230841255
 31
0.0
  0
LINE
  5
6B5
330
1F
100
AcDbEntity
  8
Sichtbare_Kanten_TC_020513_DIN_
  6
Continuous
 62
     7
100
AcDbLine
 10
103.8130913371003
 20
89.97762230841184
 30
0.0
 11
87.1749299131684
 21
89.97762230841184
 31
0.0
  0
LINE
  5
6B6
330
1F
100
AcDbEntity
  8
Sichtbare_Kanten_TC_020513_DIN_
  6
Continuous
 62
     7
100
AcDbLine
 10
90.43987258891696
 20
91.97762230840516
 30
0.0
 11
91.22933703168201
 21
91.57074164775645
 31
0.0
  0
LINE
  5
6B7
330
1F
100
AcDbEntity
  8
Sichtbare_Kanten_TC_020513_DIN_
  6
Continuous
 62
     7
100
AcDbLine
 10
91.22933703168201
 20
64.38450296905384
 30
0.0
 11
90.43987258891696
 21
63.97762230840513
 31
0.0
  0
LINE
  5
6B8
330
1F
100
AcDbEntity
  8
Sichtbare_Kanten_TC_020513_DIN_
  6
Continuous
 62
     7
100
AcDbLine
 10
103.8130913371003
 20
68.47762230841255
 30
0.0
 11
103.8130913371003
 21
87.47762230841255
 31
0.0
  0
LINE
  5
6B9
330
1F
100
AcDbEntity
  8
Sichtbare_Kanten_TC_020513_DIN_
  6
Continuous
 62
     7
100
AcDbLine
 10
112.1803146826064
 20
62.77762230841435
 30
0.0
 11
112.3803146826064
 21
62.97762230841434
 31
0.0
  0
LINE
  5
6BA
330
1F
100
AcDbEntity
  8
Sichtbare_Kanten_TC_020513_DIN_
  6
Continuous
 62
     7
100
AcDbLine
 10
101.5803146826058
 20
62.77762230841435
 30
0.0
 11
101.3803146826058
 21
62.97762230841434
 31
0.0
  0
LINE
  5
6BB
330
1F
100
AcDbEntity
  8
Sichtbare_Kanten_TC_020513_DIN_
  6
Continuous
 62
     7
100
AcDbLine
 10
101.5803146826058
 20
64.37762230841437
 30
0.0
 11
101.3803146826058
 21
64.17762230841436
 31
0.0
  0
LINE
  5
6BC
330
1F
100
AcDbEntity
  8
Sichtbare_Kanten_TC_020513_DIN_
  6
Continuous
 62
     7
100
AcDbLine
 10
112.1803146826064
 20
64.37762230841437
 30
0.0
 11
112.3803146826064
 21
64.17762230841436
 31
0.0
  0
LINE
  5
6BD
330
1F
100
AcDbEntity
  8
Sichtbare_Kanten_TC_020513_DIN_
  6
Continuous
 62
     7
100
AcDbLine
 10
112.1803146826064
 20
62.77762230841435
 30
0.0
 11
101.5803146826058
 21
62.77762230841435
 31
0.0
  0
LINE
  5
6BE
330
1F
100
AcDbEntity
  8
Sichtbare_Kanten_TC_020513_DIN_
  6
Continuous
 62
     7
100
AcDbLine
 10
101.3803146826058
 20
62.97762230841434
 30
0.0
 11
112.3803146826064
 21
62.97762230841434
 31
0.0
  0
LINE
  5
6BF
330
1F
100
AcDbEntity
  8
Sichtbare_Kanten_TC_020513_DIN_
  6
Continuous
 62
     7
100
AcDbLine
 10
112.3803146826064
 20
64.17762230841436
 30
0.0
 11
101.3803146826058
 21
64.17762230841436
 31
0.0
  0
LINE
  5
6C0
330
1F
100
AcDbEntity
  8
Sichtbare_Kanten_TC_020513_DIN_
  6
Continuous
 62
     7
100
AcDbLine
 10
101.5803146826058
 20
64.37762230841437
 30
0.0
 11
112.1803146826064
 21
64.37762230841437
 31
0.0
  0
LINE
  5
6C1
330
1F
100
AcDbEntity
  8
Sichtbare_Kanten_TC_020513_DIN_
  6
Continuous
 62
     7
100
AcDbLine
 10
104.8830913371003
 20
65.17762230841436
 30
0.0
 11
103.8830913371003
 21
64.60027203922473
 31
0.0
  0
LINE
  5
6C2
330
1F
100
AcDbEntity
  8
Sichtbare_Kanten_TC_020513_DIN_
  6
Continuous
 62
     7
100
AcDbLine
 10
108.8830913371003
 20
65.17762230841436
 30
0.0
 11
109.8830913371003
 21
64.60027203922473
 31
0.0
  0
LINE
  5
6C3
330
1F
100
AcDbEntity
  8
Sichtbare_Kanten_TC_020513_DIN_
  6
Continuous
 62
     7
100
AcDbLine
 10
109.8830913371003
 20
64.37762230841437
 30
0.0
 11
109.8830913371003
 21
64.60027203922473
 31
0.0
  0
LINE
  5
6C4
330
1F
100
AcDbEntity
  8
Sichtbare_Kanten_TC_020513_DIN_
  6
Continuous
 62
     7
100
AcDbLine
 10
103.8830913371003
 20
64.37762230841437
 30
0.0
 11
103.8830913371003
 21
64.60027203922473
 31
0.0
  0
LINE
  5
6C5
330
1F
100
AcDbEntity
  8
Sichtbare_Kanten_TC_020513_DIN_
  6
Continuous
 62
     7
100
AcDbLine
 10
108.6330913371003
 20
60.87762230841435
 30
0.0
 11
108.6330913371003
 21
61.47762230841434
 31
0.0
  0
LINE
  5
6C6
330
1F
100
AcDbEntity
  8
Sichtbare_Kanten_TC_020513_DIN_
  6
Continuous
 62
     7
100
AcDbLine
 10
105.1330913371003
 20
60.87762230841435
 30
0.0
 11
105.1330913371003
 21
61.47762230841434
 31
0.0
  0
LINE
  5
6C7
330
1F
100
AcDbEntity
  8
Sichtbare_Kanten_TC_020513_DIN_
  6
Continuous
 62
     7
100
AcDbLine
 10
108.2866811755864
 20
60.67762230841436
 30
0.0
 11
108.6330913371003
 21
60.87762230841435
 31
0.0
  0
LINE
  5
6C8
330
1F
100
AcDbEntity
  8
Sichtbare_Kanten_TC_020513_DIN_
  6
Continuous
 62
     7
100
AcDbLine
 10
105.4795014986144
 20
60.67762230841436
 30
0.0
 11
105.1330913371003
 21
60.87762230841435
 31
0.0
  0
LINE
  5
6C9
330
1F
100
AcDbEntity
  8
Sichtbare_Kanten_TC_020513_DIN_
  6
Continuous
 62
     7
100
AcDbLine
 10
108.4830913371004
 20
62.67762230841433
 30
0.0
 11
108.4830913371004
 21
62.77762230841435
 31
0.0
  0
LINE
  5
6CA
330
1F
100
AcDbEntity
  8
Sichtbare_Kanten_TC_020513_DIN_
  6
Continuous
 62
     7
100
AcDbLine
 10
105.2830913371004
 20
62.67762230841433
 30
0.0
 11
105.2830913371004
 21
62.77762230841435
 31
0.0
  0
LINE
  5
6CB
330
1F
100
AcDbEntity
  8
Sichtbare_Kanten_TC_020513_DIN_
  6
Continuous
 62
     7
100
AcDbLine
 10
108.8830913371003
 20
65.17762230841436
 30
0.0
 11
104.8830913371003
 21
65.17762230841436
 31
0.0
  0
LINE
  5
6CC
330
1F
100
AcDbEntity
  8
Sichtbare_Kanten_TC_020513_DIN_
  6
Continuous
 62
     7
100
AcDbLine
 10
109.8830913371003
 20
64.60027203922473
 30
0.0
 11
103.8830913371003
 21
64.60027203922473
 31
0.0
  0
LINE
  5
6CD
330
1F
100
AcDbEntity
  8
Sichtbare_Kanten_TC_020513_DIN_
  6
Continuous
 62
     7
100
AcDbLine
 10
108.6330913371003
 20
60.87762230841435
 30
0.0
 11
105.1330913371003
 21
60.87762230841435
 31
0.0
  0
LINE
  5
6CE
330
1F
100
AcDbEntity
  8
Sichtbare_Kanten_TC_020513_DIN_
  6
Continuous
 62
     7
100
AcDbLine
 10
108.2866811755864
 20
60.67762230841436
 30
0.0
 11
105.4795014986144
 21
60.67762230841436
 31
0.0
  0
LINE
  5
6CF
330
1F
100
AcDbEntity
  8
Sichtbare_Kanten_TC_020513_DIN_
  6
Continuous
 62
     7
100
AcDbLine
 10
101.5803146826058
 20
93.17762230841436
 30
0.0
 11
101.3803146826058
 21
92.97762230841434
 31
0.0
  0
LINE
  5
6D0
330
1F
100
AcDbEntity
  8
Sichtbare_Kanten_TC_020513_DIN_
  6
Continuous
 62
     7
100
AcDbLine
 10
112.1803146826064
 20
93.17762230841436
 30
0.0
 11
112.3803146826064
 21
92.97762230841434
 31
0.0
  0
LINE
  5
6D1
330
1F
100
AcDbEntity
  8
Sichtbare_Kanten_TC_020513_DIN_
  6
Continuous
 62
     7
100
AcDbLine
 10
112.3803146826064
 20
91.77762230841435
 30
0.0
 11
112.3803146826064
 21
92.97762230841434
 31
0.0
  0
LINE
  5
6D2
330
1F
100
AcDbEntity
  8
Sichtbare_Kanten_TC_020513_DIN_
  6
Continuous
 62
     7
100
AcDbLine
 10
101.3803146826058
 20
91.77762230841435
 30
0.0
 11
101.3803146826058
 21
92.97762230841434
 31
0.0
  0
LINE
  5
6D3
330
1F
100
AcDbEntity
  8
Sichtbare_Kanten_TC_020513_DIN_
  6
Continuous
 62
     7
100
AcDbLine
 10
112.1803146826064
 20
91.57762230841436
 30
0.0
 11
112.3803146826064
 21
91.77762230841435
 31
0.0
  0
LINE
  5
6D4
330
1F
100
AcDbEntity
  8
Sichtbare_Kanten_TC_020513_DIN_
  6
Continuous
 62
     7
100
AcDbLine
 10
101.5803146826058
 20
91.57762230841436
 30
0.0
 11
101.3803146826058
 21
91.77762230841435
 31
0.0
  0
LINE
  5
6D5
330
1F
100
AcDbEntity
  8
Sichtbare_Kanten_TC_020513_DIN_
  6
Continuous
 62
     7
100
AcDbLine
 10
108.8830913371003
 20
90.77762230841435
 30
0.0
 11
109.8830913371003
 21
91.35497257760406
 31
0.0
  0
LINE
  5
6D6
330
1F
100
AcDbEntity
  8
Sichtbare_Kanten_TC_020513_DIN_
  6
Continuous
 62
     7
100
AcDbLine
 10
104.8830913371003
 20
90.77762230841435
 30
0.0
 11
103.8830913371003
 21
91.35497257760406
 31
0.0
  0
LINE
  5
6D7
330
1F
100
AcDbEntity
  8
Sichtbare_Kanten_TC_020513_DIN_
  6
Continuous
 62
     7
100
AcDbLine
 10
109.8830913371003
 20
91.35497257760406
 30
0.0
 11
109.8830913371003
 21
91.57762230841436
 31
0.0
  0
LINE
  5
6D8
330
1F
100
AcDbEntity
  8
Sichtbare_Kanten_TC_020513_DIN_
  6
Continuous
 62
     7
100
AcDbLine
 10
103.8830913371003
 20
91.35497257760406
 30
0.0
 11
103.8830913371003
 21
91.57762230841436
 31
0.0
  0
LINE
  5
6D9
330
1F
100
AcDbEntity
  8
Sichtbare_Kanten_TC_020513_DIN_
  6
Continuous
 62
     7
100
AcDbLine
 10
108.6330913371003
 20
94.47762230841434
 30
0.0
 11
108.6330913371003
 21
95.07762230841436
 31
0.0
  0
LINE
  5
6DA
330
1F
100
AcDbEntity
  8
Sichtbare_Kanten_TC_020513_DIN_
  6
Continuous
 62
     7
100
AcDbLine
 10
105.1330913371003
 20
94.47762230841434
 30
0.0
 11
105.1330913371003
 21
95.07762230841436
 31
0.0
  0
LINE
  5
6DB
330
1F
100
AcDbEntity
  8
Sichtbare_Kanten_TC_020513_DIN_
  6
Continuous
 62
     7
100
AcDbLine
 10
105.4795014986144
 20
95.27762230841435
 30
0.0
 11
105.1330913371003
 21
95.07762230841436
 31
0.0
  0
LINE
  5
6DC
330
1F
100
AcDbEntity
  8
Sichtbare_Kanten_TC_020513_DIN_
  6
Continuous
 62
     7
100
AcDbLine
 10
108.2866811755864
 20
95.27762230841435
 30
0.0
 11
108.6330913371003
 21
95.07762230841436
 31
0.0
  0
LINE
  5
6DD
330
1F
100
AcDbEntity
  8
Sichtbare_Kanten_TC_020513_DIN_
  6
Continuous
 62
     7
100
AcDbLine
 10
108.4830913371004
 20
93.17762230841436
 30
0.0
 11
108.4830913371004
 21
93.27762230841435
 31
0.0
  0
LINE
  5
6DE
330
1F
100
AcDbEntity
  8
Sichtbare_Kanten_TC_020513_DIN_
  6
Continuous
 62
     7
100
AcDbLine
 10
105.2830913371004
 20
93.17762230841436
 30
0.0
 11
105.2830913371004
 21
93.27762230841435
 31
0.0
  0
LINE
  5
6DF
330
1F
100
AcDbEntity
  8
Sichtbare_Kanten_TC_020513_DIN_
  6
Continuous
 62
     7
100
AcDbLine
 10
101.5803146826058
 20
93.17762230841436
 30
0.0
 11
112.1803146826064
 21
93.17762230841436
 31
0.0
  0
LINE
  5
6E0
330
1F
100
AcDbEntity
  8
Sichtbare_Kanten_TC_020513_DIN_
  6
Continuous
 62
     7
100
AcDbLine
 10
112.3803146826064
 20
92.97762230841434
 30
0.0
 11
101.3803146826058
 21
92.97762230841434
 31
0.0
  0
LINE
  5
6E1
330
1F
100
AcDbEntity
  8
Sichtbare_Kanten_TC_020513_DIN_
  6
Continuous
 62
     7
100
AcDbLine
 10
112.1803146826064
 20
91.57762230841436
 30
0.0
 11
101.5803146826058
 21
91.57762230841436
 31
0.0
  0
LINE
  5
6E2
330
1F
100
AcDbEntity
  8
Sichtbare_Kanten_TC_020513_DIN_
  6
Continuous
 62
     7
100
AcDbLine
 10
101.3803146826058
 20
91.77762230841435
 30
0.0
 11
112.3803146826064
 21
91.77762230841435
 31
0.0
  0
LINE
  5
6E3
330
1F
100
AcDbEntity
  8
Sichtbare_Kanten_TC_020513_DIN_
  6
Continuous
 62
     7
100
AcDbLine
 10
108.8830913371003
 20
90.77762230841435
 30
0.0
 11
104.8830913371003
 21
90.77762230841435
 31
0.0
  0
LINE
  5
6E4
330
1F
100
AcDbEntity
  8
Sichtbare_Kanten_TC_020513_DIN_
  6
Continuous
 62
     7
100
AcDbLine
 10
109.8830913371003
 20
91.35497257760406
 30
0.0
 11
103.8830913371003
 21
91.35497257760406
 31
0.0
  0
LINE
  5
6E5
330
1F
100
AcDbEntity
  8
Sichtbare_Kanten_TC_020513_DIN_
  6
Continuous
 62
     7
100
AcDbLine
 10
108.6330913371003
 20
95.07762230841436
 30
0.0
 11
105.1330913371003
 21
95.07762230841436
 31
0.0
  0
LINE
  5
6E6
330
1F
100
AcDbEntity
  8
Sichtbare_Kanten_TC_020513_DIN_
  6
Continuous
 62
     7
100
AcDbLine
 10
108.2866811755864
 20
95.27762230841435
 30
0.0
 11
105.4795014986144
 21
95.27762230841435
 31
0.0
  0
LINE
  5
6E7
330
1F
100
AcDbEntity
  8
Sichtbare_Kanten_TC_020513_DIN_
  6
Continuous
 62
     7
100
AcDbLine
 10
102.9541960587405
 20
176.1164240217154
 30
0.0
 11
105.9485661202371
 21
175.3140849818973
 31
0.0
  0
LINE
  5
6E8
330
1F
100
AcDbEntity
  8
Sichtbare_Kanten_TC_020513_DIN_
  6
Continuous
 62
     7
100
AcDbLine
 10
99.85765870320108
 20
172.2873958936194
 30
0.0
 11
100.5047063159575
 21
174.7022104593424
 31
0.0
  0
LINE
  5
6E9
330
1F
100
AcDbEntity
  8
Sichtbare_Kanten_TC_020513_DIN_
  6
Continuous
 62
     7
100
AcDbLine
 10
98.00345276415374
 20
173.0948117317113
 30
0.0
 11
99.85765870320108
 21
172.2873958936194
 31
0.0
  0
LINE
  5
6EA
330
1F
100
AcDbEntity
  8
Sichtbare_Kanten_TC_020513_DIN_
  6
Continuous
 62
     7
100
AcDbLine
 10
98.5728546633793
 20
175.2198485495474
 30
0.0
 11
98.00345276415374
 21
173.0948117317113
 31
0.0
  0
LINE
  5
6EB
330
1F
100
AcDbEntity
  8
Sichtbare_Kanten_TC_020513_DIN_
  6
Continuous
 62
     7
100
AcDbLine
 10
104.0795399087024
 20
181.6505774102224
 30
0.0
 11
99.55729650454771
 21
176.9612346500053
 31
0.0
  0
LINE
  5
6EC
330
1F
100
AcDbEntity
  8
Sichtbare_Kanten_TC_020513_DIN_
  6
Continuous
 62
     7
100
AcDbLine
 10
87.94767057419949
 20
178.0668580456754
 30
0.0
 11
88.33404090471527
 21
177.9633304276344
 31
0.0
  0
LINE
  5
6ED
330
1F
100
AcDbEntity
  8
Sichtbare_Kanten_TC_020513_DIN_
  6
Continuous
 62
     7
100
AcDbLine
 10
87.94767057419949
 20
178.0668580456754
 30
0.0
 11
86.01581892162142
 21
178.5844961358803
 31
0.0
  0
LINE
  5
6EE
330
1F
100
AcDbEntity
  8
Sichtbare_Kanten_TC_020513_DIN_
  6
Continuous
 62
     7
100
AcDbLine
 10
86.01581892162142
 20
178.5844961358803
 30
0.0
 11
84.60857031985665
 21
173.3325728552144
 31
0.0
  0
LINE
  5
6EF
330
1F
100
AcDbEntity
  8
Sichtbare_Kanten_TC_020513_DIN_
  6
Continuous
 62
     7
100
AcDbLine
 10
84.27431310687302
 20
185.1766086199894
 30
0.0
 11
83.4082877030886
 21
184.6766086199894
 31
0.0
  0
LINE
  5
6F0
330
1F
100
AcDbEntity
  8
Sichtbare_Kanten_TC_020513_DIN_
  6
Continuous
 62
     7
100
AcDbLine
 10
84.49262369832877
 20
184.7984835837573
 30
0.0
 11
84.27431310687302
 21
185.1766086199894
 31
0.0
  0
LINE
  5
6F1
330
1F
100
AcDbEntity
  8
Sichtbare_Kanten_TC_020513_DIN_
  6
Continuous
 62
     7
100
AcDbLine
 10
83.4082877030886
 20
184.6766086199894
 30
0.0
 11
83.73439103647524
 21
184.1117810780464
 31
0.0
  0
LINE
  5
6F2
330
1F
100
AcDbEntity
  8
Sichtbare_Kanten_TC_020513_DIN_
  6
Continuous
 62
     7
100
AcDbLine
 10
84.49262369832877
 20
184.7984835837573
 30
0.0
 11
87.10453859071026
 21
180.2745142851064
 31
0.0
  0
LINE
  5
6F3
330
1F
100
AcDbEntity
  8
Sichtbare_Kanten_TC_020513_DIN_
  6
Continuous
 62
     7
100
AcDbLine
 10
87.3043394357195
 20
178.7568761949014
 30
0.0
 11
87.17492991316828
 21
178.2739132817574
 31
0.0
  0
LINE
  5
6F4
330
1F
100
AcDbEntity
  8
Sichtbare_Kanten_TC_020513_DIN_
  6
Continuous
 62
     7
100
AcDbLine
 10
86.01581892162142
 20
178.5844961358803
 30
0.0
 11
86.19699225319323
 21
179.2606442142824
 31
0.0
  0
LINE
  5
6F5
330
1F
100
AcDbEntity
  8
Sichtbare_Kanten_TC_020513_DIN_
  6
Continuous
 62
     7
100
AcDbLine
 10
86.04387841893049
 20
180.1116315921943
 30
0.0
 11
83.73439103647524
 21
184.1117810780464
 31
0.0
  0
LINE
  5
6F6
330
1F
100
AcDbEntity
  8
Sichtbare_Kanten_TC_020513_DIN_
  6
Continuous
 62
     7
100
AcDbLine
 10
86.09709183068844
 20
180.0194632593854
 30
0.0
 11
86.04387841893049
 21
180.1116315921943
 31
0.0
  0
LINE
  5
6F7
330
1F
100
AcDbEntity
  8
Sichtbare_Kanten_TC_020513_DIN_
  6
Continuous
 62
     7
100
AcDbLine
 10
94.95135097417528
 20
160.7311940986694
 30
0.0
 11
95.81536365494435
 21
159.1331970469194
 31
0.0
  0
LINE
  5
6F8
330
1F
100
AcDbEntity
  8
Sichtbare_Kanten_TC_020513_DIN_
  6
Continuous
 62
     7
100
AcDbLine
 10
95.81536365494435
 20
159.1331970469194
 30
0.0
 11
98.39080668316069
 21
158.6045070917344
 31
0.0
  0
LINE
  5
6F9
330
1F
100
AcDbEntity
  8
Sichtbare_Kanten_TC_020513_DIN_
  6
Continuous
 62
     7
100
AcDbLine
 10
95.98036883770396
 20
161.6493775961454
 30
0.0
 11
95.60716640857527
 21
161.4737347772554
 31
0.0
  0
LINE
  5
6FA
330
1F
100
AcDbEntity
  8
Sichtbare_Kanten_TC_020513_DIN_
  6
Continuous
 62
     7
100
AcDbLine
 10
96.8434758310758
 20
161.0089071564244
 30
0.0
 11
95.8586680780636
 21
161.1825553340914
 31
0.0
  0
LINE
  5
6FB
330
1F
100
AcDbEntity
  8
Sichtbare_Kanten_TC_020513_DIN_
  6
Continuous
 62
     7
100
AcDbLine
 10
96.95829061193001
 20
163.0195154365474
 30
0.0
 11
99.16038769243414
 21
162.6312263071154
 31
0.0
  0
LINE
  5
6FC
330
1F
100
AcDbEntity
  8
Sichtbare_Kanten_TC_020513_DIN_
  6
Continuous
 62
     7
100
AcDbLine
 10
103.8130913371003
 20
172.6616108010904
 30
0.0
 11
103.8130913371003
 21
165.5605902866567
 31
0.0
  0
LINE
  5
6FD
330
1F
100
AcDbEntity
  8
Sichtbare_Kanten_TC_020513_DIN_
  6
Continuous
 62
     7
100
AcDbLine
 10
99.95792928545359
 20
172.6616108010904
 30
0.0
 11
103.8130913371003
 21
172.6616108010904
 31
0.0
  0
LINE
  5
6FE
330
1F
100
AcDbEntity
  8
Sichtbare_Kanten_TC_020513_DIN_
  6
Continuous
 62
     7
100
AcDbLine
 10
89.63269129517948
 20
172.6616108010904
 30
0.0
 11
98.99828553862199
 21
172.6616108010904
 31
0.0
  0
ARC
  5
6FF
330
1F
100
AcDbEntity
  8
Stich_1-Linien_TC_020513_DIN_
  6
DASHED
 62
     2
100
AcDbCircle
 10
98.81309133710033
 20
160.6616108010904
 30
0.0
 40
28.50195064356721
100
AcDbArc
 50
58.24556330972828
 51
90.0
  0
ARC
  5
700
330
1F
100
AcDbEntity
  8
Sichtbare_Kanten_TC_020513_DIN_
  6
Continuous
 62
     7
100
AcDbCircle
 10
59.81309133710033
 20
147.1616108010904
 30
0.0
 40
1.991457069865517
100
AcDbArc
 50
92.73918121306934
 51
165.4590168474988
  0
ARC
  5
701
330
1F
100
AcDbEntity
  8
Sichtbare_Kanten_TC_020513_DIN_
  6
Continuous
 62
     7
100
AcDbCircle
 10
83.81309133710033
 20
147.1616108010904
 30
0.0
 40
1.991457069865677
100
AcDbArc
 50
14.54098315250124
 51
87.26081878693374
  0
ARC
  5
702
330
1F
100
AcDbEntity
  8
Sichtbare_Kanten_TC_020513_DIN_
  6
Continuous
 62
     7
100
AcDbCircle
 10
71.54337993204274
 20
79.97762230841573
 30
0.0
 40
0.25
100
AcDbArc
 50
270.0
 51
29.98163936886366
  0
ARC
  5
703
330
1F
100
AcDbEntity
  8
Sichtbare_Kanten_TC_020513_DIN_
  6
Continuous
 62
     7
100
AcDbCircle
 10
70.96645685511965
 20
80.97762230841573
 30
0.0
 40
0.2500000000000281
100
AcDbArc
 50
29.98163936885064
 51
209.981639368845
  0
ARC
  5
704
330
1F
100
AcDbEntity
  8
Sichtbare_Kanten_TC_020513_DIN_
  6
Continuous
 62
     7
100
AcDbCircle
 10
69.81309133703144
 20
80.97762230841573
 30
0.0
 40
0.25
100
AcDbArc
 50
0.0
 51
180.0
  0
ARC
  5
705
330
1F
100
AcDbEntity
  8
Sichtbare_Kanten_TC_020513_DIN_
  6
Continuous
 62
     7
100
AcDbCircle
 10
68.65972581894312
 20
80.97762230841573
 30
0.0
 40
0.2500000000000139
100
AcDbArc
 50
330.018360631155
 51
150.0183606311363
  0
ARC
  5
706
330
1F
100
AcDbEntity
  8
Sichtbare_Kanten_TC_020513_DIN_
  6
Continuous
 62
     7
100
AcDbCircle
 10
68.08280274202002
 20
79.97762230841573
 30
0.0
 40
0.2499999999999297
100
AcDbArc
 50
150.0183606311363
 51
270.0
  0
ARC
  5
707
330
1F
100
AcDbEntity
  8
Sichtbare_Kanten_TC_020513_DIN_
  6
Continuous
 62
     7
100
AcDbCircle
 10
68.6885719727893
 20
74.92762230841575
 30
0.0
 40
0.25
100
AcDbArc
 50
90.0
 51
270.0
  0
ARC
  5
708
330
1F
100
AcDbEntity
  8
Sichtbare_Kanten_TC_020513_DIN_
  6
Continuous
 62
     7
100
AcDbCircle
 10
70.93761070127357
 20
74.92762230841575
 30
0.0
 40
0.25
100
AcDbArc
 50
270.0
 51
90.0
  0
ARC
  5
709
330
1F
100
AcDbEntity
  8
Sichtbare_Kanten_TC_020513_DIN_
  6
Continuous
 62
     7
100
AcDbCircle
 10
71.51453377819655
 20
75.92762230841575
 30
0.0
 40
0.25
100
AcDbArc
 50
270.0
 51
330.0183606311494
  0
ARC
  5
70A
330
1F
100
AcDbEntity
  8
Sichtbare_Kanten_TC_020513_DIN_
  6
Continuous
 62
     7
100
AcDbCircle
 10
72.69722608588881
 20
77.97762230841573
 30
0.0
 40
0.2500000000000139
100
AcDbArc
 50
330.018360631155
 51
150.0183606311363
  0
ARC
  5
70B
330
1F
100
AcDbEntity
  8
Sichtbare_Kanten_TC_020513_DIN_
  6
Continuous
 62
     7
100
AcDbCircle
 10
68.11164889586621
 20
75.92762230841575
 30
0.0
 40
0.25
100
AcDbArc
 50
90.0
 51
270.0
  0
ARC
  5
70C
330
1F
100
AcDbEntity
  8
Sichtbare_Kanten_TC_020513_DIN_
  6
Continuous
 62
     7
100
AcDbCircle
 10
72.12030300896583
 20
78.97762230841573
 30
0.0
 40
0.25
100
AcDbArc
 50
270.0
 51
90.0
  0
ARC
  5
70D
330
1F
100
AcDbEntity
  8
Sichtbare_Kanten_TC_020513_DIN_
  6
Continuous
 62
     7
100
AcDbCircle
 10
67.50587966509693
 20
78.97762230841573
 30
0.0
 40
0.25
100
AcDbArc
 50
90.0
 51
234.090423822983
  0
ARC
  5
70E
330
1F
100
AcDbEntity
  8
Sichtbare_Kanten_TC_020513_DIN_
  6
Continuous
 62
     7
100
AcDbCircle
 10
67.50587966509693
 20
76.97762230841573
 30
0.0
 40
0.2499999999999352
100
AcDbArc
 50
125.9095761770247
 51
270.0
  0
ARC
  5
70F
330
1F
100
AcDbEntity
  8
Sichtbare_Kanten_TC_020513_DIN_
  6
Continuous
 62
     7
100
AcDbCircle
 10
70.93761070127357
 20
76.97762230841573
 30
0.0
 40
0.25
100
AcDbArc
 50
270.0
 51
90.0
  0
ARC
  5
710
330
1F
100
AcDbEntity
  8
Sichtbare_Kanten_TC_020513_DIN_
  6
Continuous
 62
     7
100
AcDbCircle
 10
71.81309133703144
 20
59.97762230840834
 30
0.0
 40
2.000000000000007
100
AcDbArc
 50
242.7339555492682
 51
297.2660444507318
  0
ARC
  5
711
330
1F
100
AcDbEntity
  8
Sichtbare_Kanten_TC_020513_DIN_
  6
Continuous
 62
     7
100
AcDbCircle
 10
59.81309133703144
 20
66.16228074683485
 30
0.0
 40
2.000000000000109
100
AcDbArc
 50
185.2976196024743
 51
242.7339555492653
  0
ARC
  5
712
330
1F
100
AcDbEntity
  8
Sichtbare_Kanten_TC_020513_DIN_
  6
Continuous
 62
     7
100
AcDbCircle
 10
59.81309133703144
 20
89.79296386998186
 30
0.0
 40
1.999999999999906
100
AcDbArc
 50
117.2660444507333
 51
174.7023803975289
  0
ARC
  5
713
330
1F
100
AcDbEntity
  8
Sichtbare_Kanten_TC_020513_DIN_
  6
Continuous
 62
     7
100
AcDbCircle
 10
59.81309133703144
 20
66.16228074683485
 30
0.0
 40
3.000000000000058
100
AcDbArc
 50
183.528947170268
 51
242.7339555492663
  0
ARC
  5
714
330
1F
100
AcDbEntity
  8
Sichtbare_Kanten_TC_020513_DIN_
  6
Continuous
 62
     7
100
AcDbCircle
 10
71.81309133703144
 20
59.97762230840834
 30
0.0
 40
3.000000000000051
100
AcDbArc
 50
242.7339555492661
 51
297.266044450732
  0
ARC
  5
715
330
1F
100
AcDbEntity
  8
Sichtbare_Kanten_TC_020513_DIN_
  6
Continuous
 62
     7
100
AcDbCircle
 10
71.81309133703144
 20
95.97762230840834
 30
0.0
 40
3.000000000000277
100
AcDbArc
 50
62.73395554927075
 51
117.2660444507312
  0
ARC
  5
716
330
1F
100
AcDbEntity
  8
Sichtbare_Kanten_TC_020513_DIN_
  6
Continuous
 62
     7
100
AcDbCircle
 10
59.81309133703144
 20
89.79296386998186
 30
0.0
 40
3.000000000000051
100
AcDbArc
 50
117.2660444507339
 51
176.4710528297341
  0
ARC
  5
717
330
1F
100
AcDbEntity
  8
Sichtbare_Kanten_TC_020513_DIN_
  6
Continuous
 62
     7
100
AcDbCircle
 10
71.81309133703144
 20
95.97762230840834
 30
0.0
 40
2.000000000000184
100
AcDbArc
 50
62.73395554927075
 51
117.2660444507292
  0
ARC
  5
718
330
1F
100
AcDbEntity
  8
Sichtbare_Kanten_TC_020513_DIN_
  6
Continuous
 62
     7
100
AcDbCircle
 10
153.0015601760895
 20
170.1616108010904
 30
0.0
 40
2.5
100
AcDbArc
 50
90.0
 51
180.0
  0
ARC
  5
719
330
1F
100
AcDbEntity
  8
Sichtbare_Kanten_TC_020513_DIN_
  6
Continuous
 62
     7
100
AcDbCircle
 10
172.0015601760895
 20
170.1616108010904
 30
0.0
 40
2.5
100
AcDbArc
 50
0.0
 51
90.0
  0
ARC
  5
71A
330
1F
100
AcDbEntity
  8
Sichtbare_Kanten_TC_020513_DIN_
  6
Continuous
 62
     7
100
AcDbCircle
 10
144.5015601760936
 20
147.1616108010904
 30
0.0
 40
2.0
100
AcDbArc
 50
90.0
 51
165.5224878140722
  0
ARC
  5
71B
330
1F
100
AcDbEntity
  8
Sichtbare_Kanten_TC_020513_DIN_
  6
Continuous
 62
     7
100
AcDbCircle
 10
180.5015601760936
 20
147.1616108010904
 30
0.0
 40
2.000000000000201
100
AcDbArc
 50
14.47751218592844
 51
90.0
  0
ARC
  5
71C
330
1F
100
AcDbEntity
  8
Stich_1-Linien_TC_020513_DIN_
  6
DASHED
 62
     2
100
AcDbCircle
 10
98.81309133710033
 20
160.6616108010904
 30
0.0
 40
28.5019506435672
100
AcDbArc
 50
90.0
 51
133.2553098297152
  0
ARC
  5
71D
330
1F
100
AcDbEntity
  8
Sichtbare_Kanten_TC_020513_DIN_
  6
Continuous
 62
     7
100
AcDbCircle
 10
90.31309133710033
 20
89.79296386997865
 30
0.0
 40
1.999999999999996
100
AcDbArc
 50
5.2976196024746
 51
62.73395554926815
  0
ARC
  5
71E
330
1F
100
AcDbEntity
  8
Sichtbare_Kanten_TC_020513_DIN_
  6
Continuous
 62
     7
100
AcDbCircle
 10
90.31309133710033
 20
89.79296386997865
 30
0.0
 40
2.999999999999944
100
AcDbArc
 50
3.52894717026817
 51
46.73733368840309
  0
ARC
  5
71F
330
1F
100
AcDbEntity
  8
Sichtbare_Kanten_TC_020513_DIN_
  6
Continuous
 62
     7
100
AcDbCircle
 10
90.31309133710033
 20
66.16228074683167
 30
0.0
 40
2.999999999999972
100
AcDbArc
 50
313.2626663115966
 51
356.4710528297318
  0
ARC
  5
720
330
1F
100
AcDbEntity
  8
Sichtbare_Kanten_TC_020513_DIN_
  6
Continuous
 62
     7
100
AcDbCircle
 10
90.31309133710033
 20
66.16228074683167
 30
0.0
 40
2.000000000000032
100
AcDbArc
 50
297.2660444507314
 51
354.7023803975254
  0
ARC
  5
721
330
1F
100
AcDbEntity
  8
Sichtbare_Kanten_TC_020513_DIN_
  6
Continuous
 62
     7
100
AcDbCircle
 10
79.12010992012449
 20
166.8420565089924
 30
0.0
 40
8.50000000000005
100
AcDbArc
 50
358.6472990565345
 51
29.89343167746236
  0
ARC
  5
722
330
1F
100
AcDbEntity
  8
Sichtbare_Kanten_TC_020513_DIN_
  6
Continuous
 62
     7
100
AcDbCircle
 10
88.33589914185336
 20
179.5157467851084
 30
0.0
 40
1.499999999999456
100
AcDbArc
 50
254.9999999999909
 51
320.8144034714362
  0
ARC
  5
723
330
1F
100
AcDbEntity
  8
Sichtbare_Kanten_TC_020513_DIN_
  6
Continuous
 62
     7
100
AcDbCircle
 10
102.6753110946205
 20
167.8268090725174
 30
0.0
 40
17.00000000000044
100
AcDbArc
 50
86.39005341525727
 51
140.8144034714242
  0
ARC
  5
724
330
1F
100
AcDbEntity
  8
Sichtbare_Kanten_TC_020513_DIN_
  6
Continuous
 62
     7
100
AcDbCircle
 10
103.2734669730248
 20
177.3079592952034
 30
0.0
 40
7.500000000000126
100
AcDbArc
 50
22.35685197290007
 51
86.39005341525724
  0
ARC
  5
725
330
1F
100
AcDbEntity
  8
Sichtbare_Kanten_TC_020513_DIN_
  6
Continuous
 62
     7
100
AcDbCircle
 10
106.8803146826061
 20
178.7914179565384
 30
0.0
 40
3.600000000000405
100
AcDbArc
 50
255.000000000003
 51
22.35685197290177
  0
ARC
  5
726
330
1F
100
AcDbEntity
  8
Sichtbare_Kanten_TC_020513_DIN_
  6
Continuous
 62
     7
100
AcDbCircle
 10
102.4365579685357
 20
174.1845723691374
 30
0.0
 40
1.999999999999795
100
AcDbArc
 50
75.00000000000566
 51
165.0000000000016
  0
ARC
  5
727
330
1F
100
AcDbEntity
  8
Sichtbare_Kanten_TC_020513_DIN_
  6
Continuous
 62
     7
100
AcDbCircle
 10
102.4365579685357
 20
174.1845723691374
 30
0.0
 40
4.000000000000094
100
AcDbArc
 50
136.0392388167292
 51
165.0000000000017
  0
ARC
  5
728
330
1F
100
AcDbEntity
  8
Sichtbare_Kanten_TC_020513_DIN_
  6
Continuous
 62
     7
100
AcDbCircle
 10
103.5396783842048
 20
182.1712015878854
 30
0.0
 40
0.750000000000092
100
AcDbArc
 50
316.0392388167065
 51
88.20900772053646
  0
ARC
  5
729
330
1F
100
AcDbEntity
  8
Sichtbare_Kanten_TC_020513_DIN_
  6
Continuous
 62
     7
100
AcDbCircle
 10
103.1255678942273
 20
168.9276743952494
 30
0.0
 40
13.99999999999942
100
AcDbArc
 50
88.20900772052818
 51
191.3872160105746
  0
ARC
  5
72A
330
1F
100
AcDbEntity
  8
Sichtbare_Kanten_TC_020513_DIN_
  6
Continuous
 62
     7
100
AcDbCircle
 10
85.37248778314142
 20
179.2745142851064
 30
0.0
 40
2.000000000000157
100
AcDbArc
 50
14.41823190545191
 51
30.00000000000054
  0
ARC
  5
72B
330
1F
100
AcDbEntity
  8
Sichtbare_Kanten_TC_020513_DIN_
  6
Continuous
 62
     7
100
AcDbCircle
 10
91.35087247970637
 20
164.7316586784934
 30
0.0
 40
1.49999999999966
100
AcDbArc
 50
218.1301023541365
 51
331.3910393692213
  0
ARC
  5
72C
330
1F
100
AcDbEntity
  8
Sichtbare_Kanten_TC_020513_DIN_
  6
Continuous
 62
     7
100
AcDbCircle
 10
98.81309133710033
 20
160.6616108010904
 30
0.0
 40
7.000000000000051
100
AcDbArc
 50
263.2132107017371
 51
151.3910393692175
  0
ARC
  5
72D
330
1F
100
AcDbEntity
  8
Sichtbare_Kanten_TC_020513_DIN_
  6
Continuous
 62
     7
100
AcDbCircle
 10
99.3815131682154
 20
165.4379060832014
 30
0.0
 40
11.80999999999999
100
AcDbArc
 50
184.5947591961601
 51
263.2132107017383
  0
ARC
  5
72E
330
1F
100
AcDbEntity
  8
Sichtbare_Kanten_TC_020513_DIN_
  6
Continuous
 62
     7
100
AcDbCircle
 10
96.13945772627517
 20
160.3427325875574
 30
0.0
 40
1.250000000000142
100
AcDbArc
 50
115.2034044216909
 51
161.8944073048067
  0
ARC
  5
72F
330
1F
100
AcDbEntity
  8
Sichtbare_Kanten_TC_020513_DIN_
  6
Continuous
 62
     7
100
AcDbCircle
 10
98.81309133710033
 20
160.6616108010904
 30
0.0
 40
2.099999999999794
100
AcDbArc
 50
258.3994145510172
 51
97.75279016194874
  0
ARC
  5
730
330
1F
100
AcDbEntity
  8
Sichtbare_Kanten_TC_020513_DIN_
  6
Continuous
 62
     7
100
AcDbCircle
 10
98.81309133710033
 20
160.6616108010904
 30
0.0
 40
3.000000000000141
100
AcDbArc
 50
169.9999999999964
 51
212.8264185518242
  0
ARC
  5
731
330
1F
100
AcDbEntity
  8
Sichtbare_Kanten_TC_020513_DIN_
  6
Continuous
 62
     7
100
AcDbCircle
 10
98.81309133710033
 20
160.6616108010904
 30
0.0
 40
2.499999999999994
100
AcDbArc
 50
170.0000000000074
 51
225.5395341721193
  0
ARC
  5
732
330
1F
100
AcDbEntity
  8
Sichtbare_Kanten_TC_020513_DIN_
  6
Continuous
 62
     7
100
AcDbCircle
 10
98.81309133710033
 20
160.6616108010904
 30
0.0
 40
2.000000000000132
100
AcDbArc
 50
169.9999999999963
 51
80.00000000000436
  0
ARC
  5
733
330
1F
100
AcDbEntity
  8
Sichtbare_Kanten_TC_020513_DIN_
  6
Continuous
 62
     7
100
AcDbCircle
 10
98.81309133710033
 20
160.6616108010904
 30
0.0
 40
3.000000000000329
100
AcDbArc
 50
128.1896851042179
 51
169.9999999999964
  0
ARC
  5
734
330
1F
100
AcDbEntity
  8
Sichtbare_Kanten_TC_020513_DIN_
  6
Continuous
 62
     7
100
AcDbCircle
 10
106.8803146826061
 20
178.7914179565384
 30
0.0
 40
5.300000000000384
100
AcDbArc
 50
209.549383399336
 51
94.1012942438094
  0
ARC
  5
735
330
1F
100
AcDbEntity
  8
Sichtbare_Kanten_TC_020513_DIN_
  6
Continuous
 62
     7
100
AcDbCircle
 10
106.8803146826061
 20
178.7914179565384
 30
0.0
 40
5.300000000000378
100
AcDbArc
 50
128.8158716870201
 51
177.025889929112
  0
ARC
  5
736
330
1F
100
AcDbEntity
  8
Sichtbare_Kanten_TC_020513_DIN_
  6
Continuous
 62
     7
100
AcDbCircle
 10
106.8803146826061
 20
178.7914179565384
 30
0.0
 40
5.500000000000287
100
AcDbArc
 50
131.241412339009
 51
179.369296991262
  0
ARC
  5
737
330
1F
100
AcDbEntity
  8
Sichtbare_Kanten_TC_020513_DIN_
  6
Continuous
 62
     7
100
AcDbCircle
 10
106.8803146826061
 20
178.7914179565384
 30
0.0
 40
5.500000000000631
100
AcDbArc
 50
208.7231341210941
 51
97.7896628019116
  0
CIRCLE
  5
738
330
1F
100
AcDbEntity
  8
Sichtbare_Kanten_TC_020513_DIN_
  6
Continuous
 62
     7
100
AcDbCircle
 10
93.81309133710022
 20
77.97762230841573
 30
0.0
 40
3.150000000000091
  0
CIRCLE
  5
739
330
1F
100
AcDbEntity
  8
Sichtbare_Kanten_TC_020513_DIN_
  6
Continuous
 62
     7
100
AcDbCircle
 10
93.81309133710022
 20
77.97762230841573
 30
0.0
 40
1.650000000000091
  0
CIRCLE
  5
73A
330
1F
100
AcDbEntity
  8
Sichtbare_Kanten_TC_020513_DIN_
  6
Continuous
 62
     7
100
AcDbCircle
 10
71.81309133703144
 20
62.97762230840874
 30
0.0
 40
1.649999999999977
  0
CIRCLE
  5
73B
330
1F
100
AcDbEntity
  8
Sichtbare_Kanten_TC_020513_DIN_
  6
Continuous
 62
     7
100
AcDbCircle
 10
71.81309133703144
 20
92.97762230840874
 30
0.0
 40
1.649999999999977
  0
CIRCLE
  5
73C
330
1F
100
AcDbEntity
  8
Sichtbare_Kanten_TC_020513_DIN_
  6
Continuous
 62
     7
100
AcDbCircle
 10
162.5015601760854
 20
160.6616108010904
 30
0.0
 40
7.500000000003183
  0
CIRCLE
  5
73D
330
1F
100
AcDbEntity
  8
Sichtbare_Kanten_TC_020513_DIN_
  6
Continuous
 62
     7
100
AcDbCircle
 10
162.5015601760854
 20
160.6616108010904
 30
0.0
 40
12.00000000000409
  0
CIRCLE
  5
73E
330
1F
100
AcDbEntity
  8
Skizziergeometrie_TC_020513_DIN_
  6
Continuous
 62
     7
100
AcDbCircle
 10
48.49825347949758
 20
263.826613746545
 30
0.0
 40
1.650000000000034
  0
CIRCLE
  5
73F
330
1F
100
AcDbEntity
  8
Skizziergeometrie_TC_020513_DIN_
  6
Continuous
 62
     7
100
AcDbCircle
 10
48.49825347949758
 20
233.826613746545
 30
0.0
 40
1.650000000000034
  0
CIRCLE
  5
740
330
1F
100
AcDbEntity
  8
Sichtbare_Kanten_TC_020513_DIN_
  6
Continuous
 62
     7
100
AcDbCircle
 10
162.5015601760854
 20
160.6616108010904
 30
0.0
 40
8.965000000000003
  0
CIRCLE
  5
741
330
1F
100
AcDbEntity
  8
Sichtbare_Kanten_TC_020513_DIN_
  6
Continuous
 62
     7
100
AcDbCircle
 10
106.8830913371
 20
178.7914179565384
 30
0.0
 40
1.75
  0
CIRCLE
  5
742
330
1F
100
AcDbEntity
  8
Sichtbare_Kanten_TC_020513_DIN_
  6
Continuous
 62
     7
100
AcDbCircle
 10
106.8830913371
 20
178.7914179565384
 30
0.0
 40
1.403589838486198
  0
SPLINE
  5
743
330
1F
100
AcDbEntity
  8
Sichtbare_Kanten_TC_020513_DIN_
  6
Continuous
 62
     7
100
AcDbSpline
210
0.0
220
0.0
230
1.0
 70
    24
 71
     3
 72
     9
 73
     5
 74
     3
 42
0.000000001
 43
0.0000000001
 44
0.00000001
 40
0.0
 40
0.0
 40
0.0
 40
0.0
 40
0.0287439186956077
 40
0.0574878373911939
 40
0.0574878373911939
 40
0.0574878373911939
 40
0.0574878373911939
 10
86.04387841893094
 20
86.54577065583695
 30
0.0
 10
86.0527473208906
 20
86.54939612230885
 30
0.0
 10
86.07048512480992
 20
86.55664705525265
 30
0.0
 10
86.08822292872924
 20
86.56389798819636
 30
0.0
 10
86.0970918306889
 20
86.56752345466825
 30
0.0
 11
86.04387841893094
 21
86.54577065583695
 31
0.0
 11
86.07048512480992
 21
86.5566470552526
 31
0.0
 11
86.0970918306889
 21
86.56752345466825
 31
0.0
  0
SPLINE
  5
744
330
1F
100
AcDbEntity
  8
Sichtbare_Kanten_TC_020513_DIN_
  6
Continuous
 62
     7
100
AcDbSpline
210
0.0
220
0.0
230
1.0
 70
     8
 71
     3
 72
    13
 73
     9
 74
     7
 42
0.000000001
 43
0.0000000001
 44
0.00000001
 40
0.0
 40
0.0
 40
0.0
 40
0.0
 40
0.342469663215928
 40
0.684937954547836
 40
0.8440752914116978
 40
1.003219735429078
 40
1.167473078158312
 40
1.331693112224174
 40
1.331693112224174
 40
1.331693112224174
 40
1.331693112224174
 10
87.1749299131684
 20
88.47762230841366
 30
0.0
 10
87.17637527473384
 20
88.36345707963507
 30
0.0
 10
87.17926600688864
 20
88.13512707975161
 30
0.0
 10
87.19912760019098
 20
87.85429596328345
 30
0.0
 10
87.22232189320886
 20
87.63525519528173
 30
0.0
 10
87.24380364024138
 20
87.47583637873656
 30
0.0
 10
87.26989549624417
 20
87.3153489361844
 30
0.0
 10
87.2928588939773
 20
87.20827712714872
 30
0.0
 10
87.30433943571916
 20
87.15474665288454
 30
0.0
 11
87.1749299131684
 21
88.47762230841366
 31
0.0
 11
87.18257258218894
 21
88.13523793465176
 31
0.0
 11
87.20614730977007
 21
87.79358202176238
 31
0.0
 11
87.22307079899039
 21
87.63534710900495
 31
0.0
 11
87.24428026728948
 21
87.47762230841383
 31
0.0
 11
87.27124433524483
 21
87.31559731064155
 31
0.0
 11
87.30433943571916
 21
87.15474665288454
 31
0.0
  0
SPLINE
  5
745
330
1F
100
AcDbEntity
  8
Sichtbare_Kanten_TC_020513_DIN_
  6
Continuous
 62
     7
100
AcDbSpline
210
0.0
220
0.0
230
1.0
 70
     8
 71
     3
 72
    13
 73
     9
 74
     7
 42
0.000000001
 43
0.0000000001
 44
0.00000001
 40
0.0
 40
0.0
 40
0.0
 40
0.0
 40
0.3424696217438294
 40
0.6849379466930547
 40
0.8440733795438826
 40
1.003219395084304
 40
1.269282473176254
 40
1.535313987016413
 40
1.535313987016413
 40
1.535313987016413
 40
1.535313987016413
 10
86.01581892162142
 20
88.47762230841275
 30
0.0
 10
86.01726471898614
 20
88.36345680512663
 30
0.0
 10
86.02015632299626
 20
88.135126231191
 30
0.0
 10
86.04001334616834
 20
87.85429932298571
 30
0.0
 10
86.06321592438886
 20
87.63525158178771
 30
0.0
 10
86.08928963655708
 20
87.44223253803236
 30
0.0
 10
86.12768016305836
 20
87.2147536698414
 30
0.0
 10
86.17388913210705
 20
87.04341709617869
 30
0.0
 10
86.19699225319391
 20
86.95775389305524
 30
0.0
 11
86.01581892162142
 21
88.47762230841275
 31
0.0
 11
86.02346176125086
 21
88.13523798014072
 31
0.0
 11
86.04703631822316
 21
87.79358202176158
 31
0.0
 11
86.06397180195368
 21
87.635350307123
 31
0.0
 11
86.08516927574256
 21
87.47762230841306
 31
0.0
 11
86.13184669716041
 21
87.21568571206213
 31
0.0
 11
86.19699225319391
 21
86.95775389305524
 31
0.0
  0
SPLINE
  5
746
330
1F
100
AcDbEntity
  8
Sichtbare_Kanten_TC_020513_DIN_
  6
Continuous
 62
     7
100
AcDbSpline
210
0.0
220
0.0
230
1.0
 70
    24
 71
     3
 72
     9
 73
     5
 74
     3
 42
0.000000001
 43
0.0000000001
 44
0.00000001
 40
0.0
 40
0.0
 40
0.0
 40
0.0
 40
0.3962202507943065
 40
0.7924405015886378
 40
0.7924405015886378
 40
0.7924405015886378
 40
0.7924405015886378
 10
83.73439103647524
 20
85.67061955345363
 30
0.0
 10
83.86076314678415
 20
85.63223365505311
 30
0.0
 10
84.11350736740201
 20
85.55546185825213
 30
0.0
 10
84.36625158801988
 20
85.47869006145102
 30
0.0
 10
84.49262369832877
 20
85.44030416305046
 30
0.0
 11
83.73439103647524
 21
85.67061955345363
 31
0.0
 11
84.11350736740201
 21
85.55546185825209
 31
0.0
 11
84.49262369832877
 21
85.44030416305046
 31
0.0
  0
SPLINE
  5
747
330
1F
100
AcDbEntity
  8
Sichtbare_Kanten_TC_020513_DIN_
  6
Continuous
 62
     7
100
AcDbSpline
210
0.0
220
0.0
230
1.0
 70
     8
 71
     3
 72
     9
 73
     5
 74
     3
 42
0.000000001
 43
0.0000000001
 44
0.00000001
 40
0.0
 40
0.0
 40
0.0
 40
0.0
 40
0.1187442477955249
 40
0.2365646815915575
 40
0.2365646815915575
 40
0.2365646815915575
 40
0.2365646815915575
 10
87.10453859071026
 20
86.43005635427835
 30
0.0
 10
87.14176428368475
 20
86.44422754279285
 30
0.0
 10
87.21592604996005
 20
86.4724596876388
 30
0.0
 10
87.2783871513985
 20
86.52139736341427
 30
0.0
 10
87.30949573771125
 20
86.54577065583655
 30
0.0
 11
87.10453859071026
 21
86.43005635427835
 31
0.0
 11
87.21326760856157
 21
86.47778681939627
 31
0.0
 11
87.30949573771125
 21
86.54577065583655
 31
0.0
  0
SPLINE
  5
748
330
1F
100
AcDbEntity
  8
Sichtbare_Kanten_TC_020513_DIN_
  6
Continuous
 62
     7
100
AcDbSpline
210
0.0
220
0.0
230
1.0
 70
    24
 71
     3
 72
     9
 73
     5
 74
     3
 42
0.000000001
 43
0.0000000001
 44
0.00000001
 40
0.0
 40
0.0
 40
0.0
 40
0.0
 40
0.0287439186956101
 40
0.0574878373912992
 40
0.0574878373912992
 40
0.0574878373912992
 40
0.0574878373912992
 10
86.09709183068821
 20
69.38772116216197
 30
0.0
 10
86.08822292872854
 20
69.39134662863385
 30
0.0
 10
86.07048512480921
 20
69.39859756157762
 30
0.0
 10
86.05274732088985
 20
69.4058484945214
 30
0.0
 10
86.04387841893015
 20
69.40947396099327
 30
0.0
 11
86.09709183068821
 21
69.38772116216197
 31
0.0
 11
86.07048512480922
 21
69.39859756157762
 31
0.0
 11
86.04387841893015
 21
69.40947396099327
 31
0.0
  0
SPLINE
  5
749
330
1F
100
AcDbEntity
  8
Sichtbare_Kanten_TC_020513_DIN_
  6
Continuous
 62
     7
100
AcDbSpline
210
0.0
220
0.0
230
1.0
 70
     8
 71
     3
 72
    13
 73
     9
 74
     7
 42
0.000000001
 43
0.0000000001
 44
0.00000001
 40
0.0
 40
0.0
 40
0.0
 40
0.0
 40
0.2743281174196791
 40
0.5486803318553451
 40
0.7084646696163861
 40
0.868238610746997
 40
1.201774749429146
 40
1.535309697713422
 40
1.535309697713422
 40
1.535309697713422
 40
1.535309697713422
 10
86.19699225319403
 20
68.99749072377463
 30
0.0
 10
86.17324986670225
 20
68.90913202316985
 30
0.0
 10
86.12576302247136
 20
68.7324068569363
 30
0.0
 10
86.08709674831951
 20
68.4991333593758
 30
0.0
 10
86.06118730302556
 20
68.30287723645485
 30
0.0
 10
86.03885954412651
 20
68.08630357424303
 30
0.0
 10
86.0199307454967
 20
67.81118287309485
 30
0.0
 10
86.01718952303148
 20
67.58880903114039
 30
0.0
 10
86.01581892162142
 20
67.47762230841377
 30
0.0
 11
86.19699225319403
 21
68.99749072377463
 31
0.0
 11
86.13015001538719
 21
68.73143052076594
 31
0.0
 11
86.08274279214191
 21
68.46120525657179
 31
0.0
 11
86.06194084836255
 21
68.30278078268057
 31
0.0
 11
86.04538453740007
 21
68.14386696652764
 31
0.0
 11
86.02306319522434
 21
67.81107857498282
 31
0.0
 11
86.01581892162142
 21
67.47762230841377
 31
0.0
  0
SPLINE
  5
74A
330
1F
100
AcDbEntity
  8
Sichtbare_Kanten_TC_020513_DIN_
  6
Continuous
 62
     7
100
AcDbSpline
210
0.0
220
0.0
230
1.0
 70
     8
 71
     3
 72
    13
 73
     9
 74
     7
 42
0.000000001
 43
0.0000000001
 44
0.00000001
 40
0.0
 40
0.0
 40
0.0
 40
0.0
 40
0.3002148467748701
 40
0.6004424131268815
 40
0.768152724803161
 40
0.9358596931146271
 40
1.133769799261274
 40
1.331669523619952
 40
1.331669523619952
 40
1.331669523619952
 40
1.331669523619952
 10
87.30433943571995
 20
68.80049796394857
 30
0.0
 10
87.28440016317083
 20
68.70239577124806
 30
0.0
 10
87.24452078780199
 20
68.50618722668915
 30
0.0
 10
87.21395821431486
 20
68.25173083933917
 30
0.0
 10
87.19514892149948
 20
68.04069048295807
 30
0.0
 10
87.18394069628943
 20
67.86324912072723
 30
0.0
 10
87.17637655954081
 20
67.67553161479198
 30
0.0
 10
87.1754121153004
 20
67.54359092370328
 30
0.0
 10
87.1749299131684
 20
67.47762230841536
 30
0.0
 11
87.30433943571995
 21
68.80049796394857
 31
0.0
 11
87.24851883079056
 21
68.50551827907145
 31
0.0
 11
87.21064977481785
 21
68.20768858514914
 31
0.0
 11
87.19586789676666
 21
68.040630975836
 31
0.0
 11
87.18515949433335
 21
67.87326623215566
 31
0.0
 11
87.17746360390747
 21
67.67550581277624
 31
0.0
 11
87.1749299131684
 21
67.47762230841536
 31
0.0
  0
SPLINE
  5
74B
330
1F
100
AcDbEntity
  8
Sichtbare_Kanten_TC_020513_DIN_
  6
Continuous
 62
     7
100
AcDbSpline
210
0.0
220
0.0
230
1.0
 70
     8
 71
     3
 72
     9
 73
     5
 74
     3
 42
0.000000001
 43
0.0000000001
 44
0.00000001
 40
0.0
 40
0.0
 40
0.0
 40
0.0
 40
0.1183112912364079
 40
0.2362928717006807
 40
0.2362928717006807
 40
0.2362928717006807
 40
0.2362928717006807
 10
87.30949573771125
 20
69.40947396099276
 30
0.0
 10
87.27785999392233
 20
69.43334253848211
 30
0.0
 10
87.21467665854786
 20
69.48101315948553
 30
0.0
 10
87.14121711577269
 20
69.51047693816729
 30
0.0
 10
87.10453859071026
 20
69.52518826255135
 30
0.0
 11
87.30949573771125
 21
69.40947396099276
 31
0.0
 11
87.21201227443166
 21
69.47651526341448
 31
0.0
 11
87.10453859071026
 21
69.52518826255135
 31
0.0
  0
SPLINE
  5
74C
330
1F
100
AcDbEntity
  8
Sichtbare_Kanten_TC_020513_DIN_
  6
Continuous
 62
     7
100
AcDbSpline
210
0.0
220
0.0
230
1.0
 70
    24
 71
     3
 72
     9
 73
     5
 74
     3
 42
0.000000001
 43
0.0000000001
 44
0.00000001
 40
0.0
 40
0.0
 40
0.0
 40
0.0
 40
0.3962202507942272
 40
0.7924405015887865
 40
0.7924405015887865
 40
0.7924405015887865
 40
0.7924405015887865
 10
84.49262369832877
 20
70.51494045378195
 30
0.0
 10
84.36625158801989
 20
70.47655455538134
 30
0.0
 10
84.11350736740205
 20
70.39978275858013
 30
0.0
 10
83.86076314678424
 20
70.3230109617789
 30
0.0
 10
83.73439103647524
 20
70.28462506337826
 30
0.0
 11
84.49262369832877
 21
70.51494045378195
 31
0.0
 11
84.11350736740218
 21
70.39978275858014
 31
0.0
 11
83.73439103647524
 21
70.28462506337826
 31
0.0
  0
SPLINE
  5
74D
330
1F
100
AcDbEntity
  8
Sichtbare_Kanten_TC_020513_DIN_
  6
Continuous
 62
     7
100
AcDbSpline
210
0.0
220
0.0
230
1.0
 70
     8
 71
     3
 72
    13
 73
     9
 74
     7
 42
0.000000001
 43
0.0000000001
 44
0.00000001
 40
0.0
 40
0.0
 40
0.0
 40
0.0
 40
0.3436925190058916
 40
0.6873807334969388
 40
0.8496396619668164
 40
1.011917485087392
 40
1.269783283429756
 40
1.527529827102084
 40
1.527529827102084
 40
1.527529827102084
 40
1.527529827102084
 10
83.40828770308872
 20
71.76227628437377
 30
0.0
 10
83.41110490768504
 20
71.64767840178054
 30
0.0
 10
83.41673929632552
 20
71.4184840725054
 30
0.0
 10
83.4553357960369
 20
71.13727429983183
 30
0.0
 10
83.50005230229718
 20
70.9190000372539
 30
0.0
 10
83.54906593487857
 20
70.73114213897387
 30
0.0
 10
83.61953557991163
 20
70.51574591882292
 30
0.0
 10
83.69611178355903
 20
70.36165346657421
 30
0.0
 10
83.73439103647524
 20
70.28462506337826
 30
0.0
 11
83.40828770308872
 21
71.76227628437377
 31
0.0
 11
83.4231371993004
 21
71.41890470777989
 31
0.0
 11
83.46859508230273
 21
71.07823599772246
 31
0.0
 11
83.5014495627619
 21
70.91933809600876
 31
0.0
 11
83.54226229930421
 21
70.76227628437374
 31
0.0
 11
83.62529463670202
 21
70.51814434928842
 31
0.0
 11
83.73439103647524
 21
70.28462506337826
 31
0.0
  0
SPLINE
  5
74E
330
1F
100
AcDbEntity
  8
Sichtbare_Kanten_TC_020513_DIN_
  6
Continuous
 62
     7
100
AcDbSpline
210
0.0
220
0.0
230
1.0
 70
     8
 71
     3
 72
    13
 73
     9
 74
     7
 42
0.000000001
 43
0.0000000001
 44
0.00000001
 40
0.0
 40
0.0
 40
0.0
 40
0.0
 40
0.2952905562584344
 40
0.590625614019592
 40
0.7550309561119006
 40
0.9194196935741636
 40
1.223472098082928
 40
1.527493156126194
 40
1.527493156126194
 40
1.527493156126194
 40
1.527493156126194
 10
83.73439103647524
 20
85.67061955345363
 30
0.0
 10
83.69103795344992
 20
85.58209298528986
 30
0.0
 10
83.60432526729437
 20
85.4050265015414
 30
0.0
 10
83.53112662045996
 20
85.16326421936617
 30
0.0
 10
83.48346652265808
 20
84.96076386570527
 30
0.0
 10
83.4458407335594
 20
84.75312598753263
 30
0.0
 10
83.4148959089304
 20
84.49707310634378
 30
0.0
 10
83.41049035775715
 20
84.29433310683052
 30
0.0
 10
83.40828770308872
 20
84.19296833245826
 30
0.0
 11
83.73439103647524
 21
85.67061955345363
 31
0.0
 11
83.61169387876127
 21
85.402027072779
 31
0.0
 11
83.52233873710466
 21
85.12053381191862
 31
0.0
 11
83.48485517421837
 21
84.96045851947575
 31
0.0
 11
83.45526326502686
 21
84.7987551611593
 31
0.0
 11
83.4198836232691
 21
84.49676816479509
 31
0.0
 11
83.40828770308872
 21
84.19296833245826
 31
0.0
  0
SPLINE
  5
74F
330
1F
100
AcDbEntity
  8
Sichtbare_Kanten_TC_020513_DIN_
  6
Continuous
 62
     7
100
AcDbSpline
210
0.0
220
0.0
230
1.0
 70
     8
 71
     3
 72
    11
 73
     7
 74
     5
 42
0.000000001
 43
0.0000000001
 44
0.00000001
 40
0.0
 40
0.0
 40
0.0
 40
0.0
 40
0.3436929096963122
 40
0.6873807614775698
 40
0.9802899349920415
 40
1.273133456892338
 40
1.273133456892338
 40
1.273133456892338
 40
1.273133456892338
 10
84.27431310687302
 20
71.76227628437474
 30
0.0
 10
84.27709888424855
 20
71.6476608127517
 30
0.0
 10
84.28267041307092
 20
71.41843155700613
 30
0.0
 10
84.32764837497143
 20
71.09422866636837
 30
0.0
 10
84.39354678665103
 20
70.79085467952123
 30
0.0
 10
84.45960052418475
 20
70.6069049884073
 30
0.0
 10
84.49262369832877
 20
70.51494045378195
 30
0.0
 11
84.27431310687302
 21
71.76227628437474
 31
0.0
 11
84.28916231086922
 21
71.4189043033182
 31
0.0
 11
84.33462048608703
 21
71.07823599772335
 31
0.0
 11
84.39968360430595
 21
70.79264437459864
 31
0.0
 11
84.49262369832877
 21
70.51494045378195
 31
0.0
  0
SPLINE
  5
750
330
1F
100
AcDbEntity
  8
Sichtbare_Kanten_TC_020513_DIN_
  6
Continuous
 62
     7
100
AcDbSpline
210
0.0
220
0.0
230
1.0
 70
     8
 71
     3
 72
    11
 73
     7
 74
     5
 42
0.000000001
 43
0.0000000001
 44
0.00000001
 40
0.0
 40
0.0
 40
0.0
 40
0.0
 40
0.3165070034327954
 40
0.6330395711416008
 40
0.9530931507601759
 40
1.273123399704378
 40
1.273123399704378
 40
1.273123399704378
 40
1.273123399704378
 10
84.49262369832877
 20
85.44030416305046
 30
0.0
 10
84.45720531742462
 20
85.34079672907185
 30
0.0
 10
84.38636570909836
 20
85.14177381930556
 30
0.0
 10
84.32236888934969
 20
84.82980363406462
 30
0.0
 10
84.28155417069043
 20
84.51313926923936
 30
0.0
 10
84.27672673117223
 20
84.299689384912
 30
0.0
 10
84.27431310687314
 20
84.19296833245835
 30
0.0
 11
84.49262369832877
 21
85.44030416305046
 31
0.0
 11
84.3934513004936
 21
85.13973550346881
 31
0.0
 11
84.32645834814038
 21
84.83037356101514
 31
0.0
 11
84.2871741230508
 21
84.51274005512133
 31
0.0
 11
84.27431310687314
 21
84.19296833245835
 31
0.0
  0
SPLINE
  5
751
330
1F
100
AcDbEntity
  8
Sichtbare_Kanten_TC_020513_DIN_
  6
Continuous
 62
     7
100
AcDbSpline
210
0.0
220
0.0
230
1.0
 70
     8
 71
     3
 72
    21
 73
    17
 74
    15
 42
0.000000001
 43
0.0000000001
 44
0.00000001
 40
0.0
 40
0.0
 40
0.0
 40
0.0
 40
0.4178254830191795
 40
0.8356490020558505
 40
1.043756312140814
 40
1.251864925566493
 40
1.458914543088961
 40
1.665960983047492
 40
1.871796912797173
 40
2.077633847183205
 40
2.282257495973931
 40
2.48686875102528
 40
2.690388736943607
 40
2.89394885502774
 40
3.104990071276268
 40
3.315844258989905
 40
3.315844258989905
 40
3.315844258989905
 40
3.315844258989905
 10
86.01581892162142
 20
63.87762230841435
 30
0.0
 10
86.0225799885201
 20
63.73819391578583
 30
0.0
 10
86.03610210519435
 20
63.45933778714476
 30
0.0
 10
86.12726269263133
 20
63.12073243117697
 30
0.0
 10
86.23014744991676
 20
62.8623491506211
 30
0.0
 10
86.32365479475457
 20
62.67648114627977
 30
0.0
 10
86.43243951149356
 20
62.49961949678074
 30
0.0
 10
86.5556036383702
 20
62.33336293570411
 30
0.0
 10
86.69244569301463
 20
62.17871677107271
 30
0.0
 10
86.84163661804135
 20
62.0371094756669
 30
0.0
 10
87.00236634347344
 20
61.90939889915997
 30
0.0
 10
87.17306670313802
 20
61.7967661423538
 30
0.0
 10
87.35276855331877
 20
61.69980789342242
 30
0.0
 10
87.54241677299737
 20
61.61874009937254
 30
0.0
 10
87.74082881895988
 20
61.55322404972725
 30
0.0
 10
87.87874370087192
 20
61.52519746721568
 30
0.0
 10
87.94767057419949
 20
61.51119039517425
 30
0.0
 11
86.01581892162142
 21
63.87762230841435
 31
0.0
 11
86.05096784579877
 21
63.46127787425571
 31
0.0
 11
86.15562481385824
 21
63.05677396443285
 31
0.0
 11
86.23292247715442
 21
62.86355459696235
 31
0.0
 11
86.32640177574424
 21
62.67762230841444
 31
0.0
 11
86.43490770444062
 21
62.50128170683978
 31
0.0
 11
86.55817983664966
 21
62.33493204516672
 31
0.0
 11
86.69459713063478
 21
62.18079330212225
 31
0.0
 11
86.84391653747936
 21
62.03911564492887
 31
0.0
 11
87.00413552089748
 21
61.91183361448067
 31
0.0
 11
87.17492991316803
 21
61.7991613393317
 31
0.0
 11
87.35408309583694
 21
61.70259777374842
 31
0.0
 11
87.54116228979639
 21
61.62236001852808
 31
0.0
 11
87.74190850421877
 21
61.55724970376439
 31
0.0
 11
87.94767057419949
 21
61.51119039517425
 31
0.0
  0
SPLINE
  5
752
330
1F
100
AcDbEntity
  8
Sichtbare_Kanten_TC_020513_DIN_
  6
Continuous
 62
     7
100
AcDbSpline
210
0.0
220
0.0
230
1.0
 70
     8
 71
     3
 72
    21
 73
    17
 74
    15
 42
0.000000001
 43
0.0000000001
 44
0.00000001
 40
0.0
 40
0.0
 40
0.0
 40
0.0
 40
0.4058029135754022
 40
0.8116101718587958
 40
1.016179020992824
 40
1.220750871886515
 40
1.426536573393472
 40
1.632322786225364
 40
1.839321600701221
 40
2.046324713575053
 40
2.25439817864707
 40
2.462463417770869
 40
2.67131020535806
 40
2.880195537669257
 40
3.098070925646507
 40
3.3157778362986
 40
3.3157778362986
 40
3.3157778362986
 40
3.3157778362986
 10
87.94767057420142
 20
94.44405422165434
 30
0.0
 10
87.81547905424807
 20
94.4137460748766
 30
0.0
 10
87.5510946028563
 20
94.35312944269205
 30
0.0
 10
87.24398762473595
 20
94.20330724117885
 30
0.0
 10
87.0158582942527
 20
94.05565337618705
 30
0.0
 10
86.85427151742375
 20
93.92901200554044
 30
0.0
 10
86.70411610280118
 20
93.78852908717529
 30
0.0
 10
86.5662140310601
 20
93.63488491251796
 30
0.0
 10
86.44191914144385
 20
93.46953932937284
 30
0.0
 10
86.33190204836932
 20
93.29347307944002
 30
0.0
 10
86.23722668582353
 20
93.10830195151976
 30
0.0
 10
86.15844106175128
 20
92.91518285073262
 30
0.0
 10
86.09617041996965
 20
92.71580880046042
 30
0.0
 10
86.05061914274157
 20
92.5086984801456
 30
0.0
 10
86.02134991402734
 20
92.29545354328579
 30
0.0
 10
86.01766210544434
 20
92.15021399468954
 30
0.0
 10
86.01581892162142
 20
92.07762230841436
 30
0.0
 11
87.94767057420142
 21
94.44405422165434
 31
0.0
 11
87.55587139772126
 21
94.33836878716085
 31
0.0
 11
87.18918269887885
 21
94.16453285754866
 31
0.0
 11
87.01761400857599
 21
94.05312101422012
 31
0.0
 11
86.85653553264505
 21
93.92701246160738
 31
0.0
 11
86.70625281732487
 21
93.78643201957385
 31
0.0
 11
86.56878161948768
 21
93.63329928169793
 31
0.0
 11
86.44437179222581
 21
93.46785834260928
 31
0.0
 11
86.33466421644772
 21
93.29231764416582
 31
0.0
 11
86.2399171569399
 21
93.10706764592553
 31
0.0
 11
86.1612968623474
 21
92.91442810352231
 31
0.0
 11
86.09908116153642
 21
92.71506364433952
 31
0.0
 11
86.05394723651285
 21
92.51111264223861
 31
0.0
 11
86.02536902973523
 21
92.29511965315277
 31
0.0
 11
86.01581892162142
 21
92.07762230841436
 31
0.0
  0
SPLINE
  5
753
330
1F
100
AcDbEntity
  8
Sichtbare_Kanten_TC_020513_DIN_
  6
Continuous
 62
     7
100
AcDbSpline
210
0.0
220
0.0
230
1.0
 70
     8
 71
     3
 72
    19
 73
    15
 74
    13
 42
0.000000001
 43
0.0000000001
 44
0.00000001
 40
0.0
 40
0.0
 40
0.0
 40
0.0
 40
0.2038204191847866
 40
0.4076437355385089
 40
0.5105288497925861
 40
0.6134147490050972
 40
0.7169071973086011
 40
0.8204013141352821
 40
0.9244320469331897
 40
1.028458981755138
 40
1.132878758994617
 40
1.237317314937918
 40
1.347539692651144
 40
1.457676014026324
 40
1.457676014026324
 40
1.457676014026324
 40
1.457676014026324
 10
87.94767057419949
 20
93.20899315831267
 30
0.0
 10
87.88500637646949
 20
93.18229333395406
 30
0.0
 10
87.75967709653915
 20
93.12889329244209
 30
0.0
 10
87.62092177075817
 20
93.02785756814487
 30
0.0
 10
87.52083902076546
 20
92.93492400777878
 30
0.0
 10
87.45174522705938
 20
92.85820289823315
 30
0.0
 10
87.3894236220949
 20
92.7756810002364
 30
0.0
 10
87.33423252581277
 20
92.68776724955632
 30
0.0
 10
87.28670292382903
 20
92.59528796529295
 30
0.0
 10
87.24711060224466
 20
92.49881538095727
 30
0.0
 10
87.2157687966177
 20
92.39919760484779
 30
0.0
 10
87.19268643441477
 20
92.29527463781479
 30
0.0
 10
87.17776074795363
 20
92.18782256840802
 30
0.0
 10
87.17587327420496
 20
92.11434616375352
 30
0.0
 10
87.1749299131684
 20
92.07762230841425
 30
0.0
 11
87.94767057419949
 21
93.20899315831267
 31
0.0
 11
87.76331213929318
 21
93.12207520182564
 31
0.0
 11
87.597204992728
 21
93.0039550901058
 31
0.0
 11
87.52191599777197
 21
92.93383437909561
 31
0.0
 11
87.4530242217063
 21
92.85741820552747
 31
0.0
 11
87.3906486031327
 21
92.77483510072486
 31
0.0
 11
87.33561269678188
 21
92.68718761721114
 31
0.0
 11
87.28804711657762
 21
92.59466784046778
 31
0.0
 11
87.24853790772649
 21
92.49843569544188
 31
0.0
 11
87.21722354330824
 21
92.39882193821202
 31
0.0
 11
87.19444557794361
 21
92.29689757184968
 31
0.0
 11
87.17981810711044
 21
92.18765010085838
 31
0.0
 11
87.1749299131684
 21
92.07762230841425
 31
0.0
  0
SPLINE
  5
754
330
1F
100
AcDbEntity
  8
Sichtbare_Kanten_TC_020513_DIN_
  6
Continuous
 62
     7
100
AcDbSpline
210
0.0
220
0.0
230
1.0
 70
     8
 71
     3
 72
    19
 73
    15
 74
    13
 42
0.000000001
 43
0.0000000001
 44
0.00000001
 40
0.0
 40
0.0
 40
0.0
 40
0.0
 40
0.2089127415059933
 40
0.4178245003607739
 40
0.5218783254864628
 40
0.6259324441955002
 40
0.729456510900535
 40
0.8329805256089455
 40
0.9359016043305222
 40
1.038816803058193
 40
1.141116060096101
 40
1.243434638304212
 40
1.350616778102391
 40
1.457703747022153
 40
1.457703747022153
 40
1.457703747022153
 40
1.457703747022153
 10
87.1749299131684
 20
63.87762230841426
 30
0.0
 10
87.17831046258478
 20
63.80790811767935
 30
0.0
 10
87.18507156017786
 20
63.66848006535471
 30
0.0
 10
87.23065166773891
 20
63.49917726261437
 30
0.0
 10
87.28209446324712
 20
63.36998577559611
 30
0.0
 10
87.32884791237404
 20
63.27705201708042
 30
0.0
 10
87.38323929133438
 20
63.18862051065483
 30
0.0
 10
87.44482261299778
 20
63.10549221535462
 30
0.0
 10
87.5132451650044
 20
63.02816854685747
 30
0.0
 10
87.58783981587356
 20
62.95737611231046
 30
0.0
 10
87.66818640811086
 20
62.89348135632629
 30
0.0
 10
87.75509773612042
 20
62.83629963227173
 30
0.0
 10
87.84805298764002
 20
62.78584393880857
 30
0.0
 10
87.91447454418454
 20
62.75944503900029
 30
0.0
 10
87.94767057419949
 20
62.74625145851564
 30
0.0
 11
87.1749299131684
 21
63.87762230841426
 31
0.0
 11
87.19250437548853
 21
63.66945009126381
 31
0.0
 11
87.24483285928665
 21
63.4671981364235
 31
0.0
 11
87.28348195032703
 21
63.37058837299168
 31
0.0
 11
87.33022134022971
 21
63.2776223084143
 31
0.0
 11
87.38447336056156
 21
63.18945229766975
 31
0.0
 11
87.4461103706824
 21
63.10627717679041
 31
0.0
 11
87.51432250575138
 21
63.02920673357968
 31
0.0
 11
87.58897872109723
 21
62.95836897667147
 31
0.0
 11
87.66907531191015
 21
62.89473192516267
 31
0.0
 11
87.75448540894162
 21
62.83839182387289
 31
0.0
 11
87.8489588778055
 21
62.78776796467014
 31
0.0
 11
87.94767057419949
 21
62.74625145851564
 31
0.0
  0
SPLINE
  5
755
330
1F
100
AcDbEntity
  8
Sichtbare_Kanten_TC_020513_DIN_
  6
Continuous
 62
     7
100
AcDbSpline
210
0.0
220
0.0
230
1.0
 70
    24
 71
     3
 72
     9
 73
     5
 74
     3
 42
0.000000001
 43
0.0000000001
 44
0.00000001
 40
0.0
 40
0.0
 40
0.0
 40
0.0
 40
0.511487316766293
 40
1.022974633532586
 40
1.022974633532586
 40
1.022974633532586
 40
1.022974633532586
 10
84.49262369832877
 20
184.7984835837573
 30
0.0
 10
84.36625158801985
 20
184.6840331661388
 30
0.0
 10
84.11350736740201
 20
184.4551323309019
 30
0.0
 10
83.86076314678415
 20
184.2262314956649
 30
0.0
 10
83.73439103647524
 20
184.1117810780464
 30
0.0
 11
84.49262369832877
 21
184.7984835837573
 31
0.0
 11
84.11350736740201
 21
184.4551323309019
 31
0.0
 11
83.73439103647524
 21
184.1117810780464
 31
0.0
  0
SPLINE
  5
756
330
1F
100
AcDbEntity
  8
Sichtbare_Kanten_TC_020513_DIN_
  6
Continuous
 62
     7
100
AcDbSpline
210
0.0
220
0.0
230
1.0
 70
    24
 71
     3
 72
     9
 73
     5
 74
     3
 42
0.000000001
 43
0.0000000001
 44
0.00000001
 40
0.0
 40
0.0
 40
0.0
 40
0.0
 40
0.0473502529817977
 40
0.0947005059635664
 40
0.0947005059635664
 40
0.0947005059635664
 40
0.0947005059635664
 10
153.9116590298394
 20
180.0194632593854
 30
0.0
 10
153.915284496311
 20
180.0348246481869
 30
0.0
 10
153.9225354292545
 20
180.06554742579
 30
0.0
 10
153.9297863621984
 20
180.0962702033929
 30
0.0
 10
153.9334118286704
 20
180.1116315921943
 30
0.0
 11
153.9116590298394
 21
180.0194632593854
 31
0.0
 11
153.9225354292545
 21
180.0655474257899
 31
0.0
 11
153.9334118286704
 21
180.1116315921943
 31
0.0
  0
SPLINE
  5
757
330
1F
100
AcDbEntity
  8
Sichtbare_Kanten_TC_020513_DIN_
  6
Continuous
 62
     7
100
AcDbSpline
210
0.0
220
0.0
230
1.0
 70
     8
 71
     3
 72
    13
 73
     9
 74
     7
 42
0.000000001
 43
0.0000000001
 44
0.00000001
 40
0.0
 40
0.0
 40
0.0
 40
0.0
 40
0.348187902652073
 40
0.6963741679217422
 40
0.8697963518640635
 40
1.043221088983236
 40
1.377760846914307
 40
1.71225098806343
 40
1.71225098806343
 40
1.71225098806343
 40
1.71225098806343
 10
152.0015601760924
 20
178.5844961358803
 30
0.0
 10
152.1177539556112
 20
178.5901277932556
 30
0.0
 10
152.3501409669859
 20
178.6013910961819
 30
0.0
 10
152.6322687919842
 20
178.6773902225193
 30
0.0
 10
152.8476777229783
 20
178.7630611347457
 30
0.0
 10
153.0505317539243
 20
178.8655264702533
 30
0.0
 10
153.2870173260151
 20
179.0209090596812
 30
0.0
 10
153.4432953696556
 20
179.1807364435864
 30
0.0
 10
153.5214285914494
 20
179.2606442142824
 30
0.0
 11
152.0015601760924
 21
178.5844961358803
 31
0.0
 11
152.3485138719974
 21
178.6137869027164
 31
0.0
 11
152.6856004627437
 21
178.7010010460777
 31
0.0
 11
152.8466174680308
 21
178.7654120556638
 31
0.0
 11
153.0015601760923
 21
178.8433151809827
 31
0.0
 11
153.2791487301374
 21
179.0300273804982
 31
0.0
 11
153.5214285914494
 21
179.2606442142824
 31
0.0
  0
SPLINE
  5
758
330
1F
100
AcDbEntity
  8
Sichtbare_Kanten_TC_020513_DIN_
  6
Continuous
 62
     7
100
AcDbSpline
210
0.0
220
0.0
230
1.0
 70
    24
 71
     3
 72
     9
 73
     5
 74
     3
 42
0.000000001
 43
0.0000000001
 44
0.00000001
 40
0.0
 40
0.0
 40
0.0
 40
0.0
 40
0.3621482812351406
 40
0.7242965624705427
 40
0.7242965624705427
 40
0.7242965624705427
 40
0.7242965624705427
 10
155.0388783214575
 20
184.7984835837573
 30
0.0
 10
155.000492423057
 20
184.6840331661388
 30
0.0
 10
154.9237206262557
 20
184.4551323309018
 30
0.0
 10
154.8469488294542
 20
184.2262314956649
 30
0.0
 10
154.8085629310534
 20
184.1117810780464
 30
0.0
 11
155.0388783214575
 21
184.7984835837573
 31
0.0
 11
154.9237206262558
 21
184.4551323309019
 31
0.0
 11
154.8085629310534
 21
184.1117810780464
 31
0.0
  0
SPLINE
  5
759
330
1F
100
AcDbEntity
  8
Sichtbare_Kanten_TC_020513_DIN_
  6
Continuous
 62
     7
100
AcDbSpline
210
0.0
220
0.0
230
1.0
 70
    24
 71
     3
 72
     9
 73
     5
 74
     3
 42
0.000000001
 43
0.0000000001
 44
0.00000001
 40
0.0
 40
0.0
 40
0.0
 40
0.0
 40
0.047350252981788
 40
0.0947005059636298
 40
0.0947005059636298
 40
0.0947005059636298
 40
0.0947005059636298
 10
171.0697085235145
 20
180.1116315921934
 30
0.0
 10
171.0733339899863
 20
180.0962702033919
 30
0.0
 10
171.0805849229299
 20
180.0655474257889
 30
0.0
 10
171.0878358558735
 20
180.0348246481859
 30
0.0
 10
171.0914613223454
 20
180.0194632593844
 30
0.0
 11
171.0697085235145
 21
180.1116315921934
 31
0.0
 11
171.0805849229299
 21
180.0655474257889
 31
0.0
 11
171.0914613223454
 21
180.0194632593844
 31
0.0
  0
SPLINE
  5
75A
330
1F
100
AcDbEntity
  8
Sichtbare_Kanten_TC_020513_DIN_
  6
Continuous
 62
     7
100
AcDbSpline
210
0.0
220
0.0
230
1.0
 70
     8
 71
     3
 72
    13
 73
     9
 74
     7
 42
0.000000001
 43
0.0000000001
 44
0.00000001
 40
0.0
 40
0.0
 40
0.0
 40
0.0
 40
0.3438532027935657
 40
0.6877116237175362
 40
0.8611772967781622
 40
1.034642691379198
 40
1.373465964764234
 40
1.712249126475188
 40
1.712249126475188
 40
1.712249126475188
 40
1.712249126475188
 10
171.4816917607354
 20
179.2606442142824
 30
0.0
 10
171.5621351382158
 20
179.1785993747626
 30
0.0
 10
171.7230231240379
 20
179.0145084613339
 30
0.0
 10
171.9660351632809
 20
178.8573846403929
 30
0.0
 10
172.1726315011176
 20
178.7554167362419
 30
0.0
 10
172.3859428736469
 20
178.6728476574288
 30
0.0
 10
172.6624004098086
 20
178.6004935517404
 30
0.0
 10
172.8885113818897
 20
178.5898283925031
 30
0.0
 10
173.0015601760924
 20
178.5844961358803
 30
0.0
 11
171.4816917607354
 21
179.2606442142824
 31
0.0
 11
171.7313153954678
 21
179.0241636300023
 31
0.0
 11
172.017977227939
 21
178.8342594208999
 31
0.0
 11
172.1736713455506
 21
178.7577762087508
 31
0.0
 11
172.3353155179835
 21
178.6948365161223
 31
0.0
 11
172.6639138628105
 21
178.6122269557568
 31
0.0
 11
173.0015601760924
 21
178.5844961358803
 31
0.0
  0
SPLINE
  5
75B
330
1F
100
AcDbEntity
  8
Sichtbare_Kanten_TC_020513_DIN_
  6
Continuous
 62
     7
100
AcDbSpline
210
0.0
220
0.0
230
1.0
 70
    24
 71
     3
 72
     9
 73
     5
 74
     3
 42
0.000000001
 43
0.0000000001
 44
0.00000001
 40
0.0
 40
0.0
 40
0.0
 40
0.0
 40
0.3621482812353655
 40
0.7242965624704705
 40
0.7242965624704705
 40
0.7242965624704705
 40
0.7242965624704705
 10
170.1945574211294
 20
184.1117810780464
 30
0.0
 10
170.1561715227288
 20
184.226231495665
 30
0.0
 10
170.0793997259275
 20
184.4551323309018
 30
0.0
 10
170.0026279291262
 20
184.6840331661389
 30
0.0
 10
169.9642420307255
 20
184.7984835837573
 30
0.0
 11
170.1945574211294
 21
184.1117810780464
 31
0.0
 11
170.0793997259274
 21
184.4551323309019
 31
0.0
 11
169.9642420307255
 21
184.7984835837573
 31
0.0
  0
SPLINE
  5
75C
330
1F
100
AcDbEntity
  8
Sichtbare_Kanten_TC_020513_DIN_
  6
Continuous
 62
     7
100
AcDbSpline
210
0.0
220
0.0
230
1.0
 70
     8
 71
     3
 72
    13
 73
     9
 74
     7
 42
0.000000001
 43
0.0000000001
 44
0.00000001
 40
0.0
 40
0.0
 40
0.0
 40
0.0
 40
0.331858357744023
 40
0.663736608531271
 40
0.8349241110462505
 40
1.006109852372807
 40
1.312466048267031
 40
1.618712697274178
 40
1.618712697274178
 40
1.618712697274178
 40
1.618712697274178
 10
170.1945574211294
 20
184.1117810780464
 30
0.0
 10
170.1103145135424
 20
184.1838818670171
 30
0.0
 10
169.9418236393398
 20
184.3280877554831
 30
0.0
 10
169.6948347503692
 20
184.4607398953502
 30
0.0
 10
169.4866697413221
 20
184.5456796218304
 30
0.0
 10
169.2802760175261
 20
184.6106974174871
 30
0.0
 10
169.0234084610088
 20
184.664911531353
 30
0.0
 10
168.8190614401713
 20
184.6727100601886
 30
0.0
 10
168.7169062001334
 20
184.6766086199894
 30
0.0
 11
170.1945574211294
 21
184.1117810780464
 31
0.0
 11
169.9348648641353
 21
184.3183960487193
 31
0.0
 11
169.644471679595
 21
184.4790664344174
 31
0.0
 11
169.4858632684582
 21
184.5434755424099
 31
0.0
 11
169.3226930288354
 21
184.5952445599979
 31
0.0
 11
169.0224768886978
 21
184.65627233046
 31
0.0
 11
168.7169062001334
 21
184.6766086199894
 31
0.0
  0
SPLINE
  5
75D
330
1F
100
AcDbEntity
  8
Sichtbare_Kanten_TC_020513_DIN_
  6
Continuous
 62
     7
100
AcDbSpline
210
0.0
220
0.0
230
1.0
 70
     8
 71
     3
 72
    13
 73
     9
 74
     7
 42
0.000000001
 43
0.0000000001
 44
0.00000001
 40
0.0
 40
0.0
 40
0.0
 40
0.0
 40
0.3469939891538688
 40
0.693983189488663
 40
0.8644870800730554
 40
1.035000972070781
 40
1.326949616438274
 40
1.618736539661528
 40
1.618736539661528
 40
1.618736539661528
 40
1.618736539661528
 10
156.2862141520494
 20
184.6766086199894
 30
0.0
 10
156.170445122851
 20
184.6716060847455
 30
0.0
 10
155.9389086632918
 20
184.6616010685978
 30
0.0
 10
155.6569508648304
 20
184.5937802527113
 30
0.0
 10
155.440787992014
 20
184.516794181638
 30
0.0
 10
155.2484639706252
 20
184.4297575898289
 30
0.0
 10
155.029519407475
 20
184.3032762791948
 30
0.0
 10
154.8822014822057
 20
184.1756010249531
 30
0.0
 10
154.8085629310534
 20
184.1117810780464
 30
0.0
 11
156.2862141520494
 21
184.6766086199894
 31
0.0
 11
155.9402044717888
 21
184.6504910027615
 31
0.0
 11
155.6021738653975
 21
184.5721531751188
 31
0.0
 11
155.4416727383318
 21
184.5146121883475
 31
0.0
 11
155.2862141520487
 21
184.4445578124202
 31
0.0
 11
155.0350079314713
 21
184.2957981180949
 31
0.0
 11
154.8085629310534
 21
184.1117810780464
 31
0.0
  0
SPLINE
  5
75E
330
1F
100
AcDbEntity
  8
Sichtbare_Kanten_TC_020513_DIN_
  6
Continuous
 62
     7
100
AcDbSpline
210
0.0
220
0.0
230
1.0
 70
     8
 71
     3
 72
    11
 73
     7
 74
     5
 42
0.000000001
 43
0.0000000001
 44
0.00000001
 40
0.0
 40
0.0
 40
0.0
 40
0.0
 40
0.338291444528512
 40
0.6765983395746586
 40
0.9993283725165665
 40
1.321984028559787
 40
1.321984028559787
 40
1.321984028559787
 40
1.321984028559787
 10
169.9642420307255
 20
184.7984835837573
 30
0.0
 10
169.8682060535752
 20
184.8581112997283
 30
0.0
 10
169.6761297058092
 20
184.9773694419652
 30
0.0
 10
169.3612015741772
 20
185.0916157220362
 30
0.0
 10
169.0399443666434
 20
185.1637010490822
 30
0.0
 10
168.8245773161039
 20
185.1723064318738
 30
0.0
 10
168.7169062001334
 20
185.1766086199894
 30
0.0
 11
169.9642420307255
 21
184.7984835837573
 31
0.0
 11
169.6708476602887
 21
184.9668903691827
 31
0.0
 11
169.3543114286904
 21
185.0862904127412
 31
0.0
 11
169.038771037856
 21
185.1540321049175
 31
0.0
 11
168.7169062001334
 21
185.1766086199894
 31
0.0
  0
SPLINE
  5
75F
330
1F
100
AcDbEntity
  8
Sichtbare_Kanten_TC_020513_DIN_
  6
Continuous
 62
     7
100
AcDbSpline
210
0.0
220
0.0
230
1.0
 70
     8
 71
     3
 72
    11
 73
     7
 74
     5
 42
0.000000001
 43
0.0000000001
 44
0.00000001
 40
0.0
 40
0.0
 40
0.0
 40
0.0
 40
0.3469940502817301
 40
0.6939831828275873
 40
1.00803997705121
 40
1.321991317911052
 40
1.321991317911052
 40
1.321991317911052
 40
1.321991317911052
 10
156.2862141520494
 20
185.1766086199894
 30
0.0
 10
156.1704086714114
 20
185.171632759899
 30
0.0
 10
155.9387993526822
 20
185.1616810953095
 30
0.0
 10
155.6105500766989
 20
185.0822105258655
 30
0.0
 10
155.3056273549441
 20
184.9654052041386
 30
0.0
 10
155.1277847092247
 20
184.8541178991647
 30
0.0
 10
155.0388783214575
 20
184.7984835837573
 30
0.0
 11
156.2862141520494
 21
185.1766086199894
 31
0.0
 11
155.940204414129
 21
185.1504909521026
 31
0.0
 11
155.6021738653985
 21
185.0721531751191
 31
0.0
 11
155.3102364185064
 21
184.9563766746409
 31
0.0
 11
155.0388783214575
 21
184.7984835837573
 31
0.0
  0
SPLINE
  5
760
330
1F
100
AcDbEntity
  8
Sichtbare_Kanten_TC_020513_DIN_
  6
Continuous
 62
     7
100
AcDbSpline
210
0.0
220
0.0
230
1.0
 70
    24
 71
     3
 72
     9
 73
     5
 74
     3
 42
0.000000001
 43
0.0000000001
 44
0.00000001
 40
0.0
 40
0.0
 40
0.0
 40
0.0
 40
0.054416872718578
 40
0.1088337454379123
 40
0.1088337454379123
 40
0.1088337454379123
 40
0.1088337454379123
 10
179.0015601760935
 20
177.9633304276344
 30
0.0
 10
178.9959654949666
 20
177.9805850306411
 30
0.0
 10
178.9847761327129
 20
178.0150942366548
 30
0.0
 10
178.9735867704593
 20
178.0496034426684
 30
0.0
 10
178.9679920893324
 20
178.0668580456754
 30
0.0
 11
179.0015601760935
 21
177.9633304276344
 31
0.0
 11
178.9847761327129
 21
178.0150942366545
 31
0.0
 11
178.9679920893324
 21
178.0668580456754
 31
0.0
  0
SPLINE
  5
761
330
1F
100
AcDbEntity
  8
Sichtbare_Kanten_TC_020513_DIN_
  6
Continuous
 62
     7
100
AcDbSpline
210
0.0
220
0.0
230
1.0
 70
     8
 71
     3
 72
    21
 73
    17
 74
    15
 42
0.000000001
 43
0.0000000001
 44
0.00000001
 40
0.0
 40
0.0
 40
0.0
 40
0.0
 40
0.1739545326292757
 40
0.3485327130787268
 40
0.4755787124731217
 40
0.6023394661284863
 40
0.7541532982291981
 40
0.9060769746444608
 40
1.079470319630548
 40
1.25282791955692
 40
1.443206756318183
 40
1.633597735285247
 40
1.835782628368561
 40
2.037967297315223
 40
2.254793695827031
 40
2.47160856044195
 40
2.47160856044195
 40
2.47160856044195
 40
2.47160856044195
 10
178.9679920893324
 20
178.0668580456754
 30
0.0
 10
178.9280985795275
 20
178.1096191171467
 30
0.0
 10
178.8481685296112
 20
178.1952945535407
 30
0.0
 10
178.7032126129566
 20
178.2651251688712
 30
0.0
 10
178.5715639623365
 20
178.3195038589444
 30
0.0
 10
178.4432795171969
 20
178.3627951945089
 30
0.0
 10
178.3052414602197
 20
178.4020655236299
 30
0.0
 10
178.1504480749144
 20
178.4388034135008
 30
0.0
 10
177.9874267133521
 20
178.4714361367159
 30
0.0
 10
177.8107771942333
 20
178.5007855102895
 30
0.0
 10
177.6277356541552
 20
178.5257408815223
 30
0.0
 10
177.4345306332577
 20
178.5467034731688
 30
0.0
 10
177.2369398408281
 20
178.5631699186237
 30
0.0
 10
177.0302141185889
 20
178.5752737136558
 30
0.0
 10
176.8183839801343
 20
178.5830435518674
 30
0.0
 10
176.6738334958292
 20
178.584011946534
 30
0.0
 10
176.6015601760925
 20
178.5844961358803
 30
0.0
 11
178.9679920893324
 21
178.0668580456754
 31
0.0
 11
178.8417594665122
 21
178.1865472580162
 31
0.0
 11
178.6884707252311
 21
178.2700942593346
 31
0.0
 11
178.5709069228404
 21
178.3182548052787
 31
0.0
 11
178.4509503292907
 21
178.3592267988917
 31
0.0
 11
178.3049899831236
 21
178.4009762527763
 31
0.0
 11
178.157237149382
 21
178.4363302275411
 31
0.0
 11
177.9872444270712
 21
178.4705022395911
 31
0.0
 11
177.8162555118508
 21
178.49906179662
 31
0.0
 11
177.6276349720458
 21
178.5248763938882
 31
0.0
 11
177.438365971208
 21
178.5455154391453
 31
0.0
 11
177.2368823815585
 21
178.5623408399092
 31
0.0
 11
177.0350505099244
 21
178.574279684696
 31
0.0
 11
176.818360211051
 21
178.5819609453582
 31
0.0
 11
176.6015601760925
 21
178.5844961358803
 31
0.0
  0
SPLINE
  5
762
330
1F
100
AcDbEntity
  8
Sichtbare_Kanten_TC_020513_DIN_
  6
Continuous
 62
     7
100
AcDbSpline
210
0.0
220
0.0
230
1.0
 70
     8
 71
     3
 72
    21
 73
    17
 74
    15
 42
0.000000001
 43
0.0000000001
 44
0.00000001
 40
0.0
 40
0.0
 40
0.0
 40
0.0
 40
0.4109636518620136
 40
0.8219255544957921
 40
1.012893463961797
 40
1.203863816993246
 40
1.378029052355002
 40
1.552182686927968
 40
1.704983477406673
 40
1.857816276970158
 40
1.985836799555452
 40
2.11375517977906
 40
2.214828869371378
 40
2.316212069418634
 40
2.394737567787498
 40
2.472525726722927
 40
2.472525726722927
 40
2.472525726722927
 40
2.472525726722927
 10
148.4015601760924
 20
178.5844961358803
 30
0.0
 10
148.264562243655
 20
178.5827604223368
 30
0.0
 10
147.9905669616851
 20
178.5792890125425
 30
0.0
 10
147.6535641334386
 20
178.5554710852459
 30
0.0
 10
147.3907239705085
 20
178.5276060384839
 30
0.0
 10
147.2069716483997
 20
178.5029674915417
 30
0.0
 10
147.029538747299
 20
178.473959557852
 30
0.0
 10
146.8656235499794
 20
178.4416223817842
 30
0.0
 10
146.7098800167261
 20
178.4051094217924
 30
0.0
 10
146.5706356197003
 20
178.3661100389435
 30
0.0
 10
146.4412731287757
 20
178.3231034958172
 30
0.0
 10
146.3307775082487
 20
178.2787389219232
 30
0.0
 10
146.2314395471328
 20
178.2307967549935
 30
0.0
 10
146.1518075232967
 20
178.1814378525789
 30
0.0
 10
146.0831425803041
 20
178.1287679380947
 30
0.0
 10
146.0510826283015
 20
178.0874296763054
 30
0.0
 10
146.0351282628524
 20
178.0668580456743
 30
0.0
 11
148.4015601760924
 21
178.5844961358803
 31
0.0
 11
147.9906988768065
 21
178.5753249925014
 31
0.0
 11
147.5807118321104
 21
178.5470352599585
 31
0.0
 11
147.3908263673503
 21
178.526731252173
 31
0.0
 11
147.2015601760921
 21
178.5012757109351
 31
0.0
 11
147.0297016708967
 21
178.4730235714512
 31
0.0
 11
146.8588699128444
 21
178.4391709666921
 31
0.0
 11
146.7101588617269
 21
178.4040553745088
 31
0.0
 11
146.5630535126066
 21
178.3626080484568
 31
0.0
 11
146.4416868678233
 21
178.3218724167639
 31
0.0
 11
146.3230992070097
 21
178.2739132817571
 31
0.0
 11
146.2324043816996
 21
178.2293000627101
 31
0.0
 11
146.1462978862067
 21
178.1757816121974
 31
0.0
 11
146.0853664955419
 21
178.126247595956
 31
0.0
 11
146.0351282628524
 21
178.0668580456743
 31
0.0
  0
SPLINE
  5
763
330
1F
100
AcDbEntity
  8
Sichtbare_Kanten_TC_020513_DIN_
  6
Continuous
 62
     7
100
AcDbSpline
210
0.0
220
0.0
230
1.0
 70
    24
 71
     3
 72
     9
 73
     5
 74
     3
 42
0.000000001
 43
0.0000000001
 44
0.00000001
 40
0.0
 40
0.0
 40
0.0
 40
0.0
 40
0.0544168727121707
 40
0.1088337454298652
 40
0.1088337454298652
 40
0.1088337454298652
 40
0.1088337454298652
 10
146.0351282628524
 20
178.0668580456743
 30
0.0
 10
146.0295335817265
 20
178.0496034426695
 30
0.0
 10
146.0183442194736
 20
178.0150942366584
 30
0.0
 10
146.0071548572199
 20
177.9805850306476
 30
0.0
 10
146.0015601760924
 20
177.9633304276414
 30
0.0
 11
146.0351282628524
 21
178.0668580456743
 31
0.0
 11
146.0183442194743
 21
178.0150942366601
 31
0.0
 11
146.0015601760924
 21
177.9633304276414
 31
0.0
  0
SPLINE
  5
764
330
1F
100
AcDbEntity
  8
Sichtbare_Kanten_TC_020513_DIN_
  6
Continuous
 62
     7
100
AcDbSpline
210
0.0
220
0.0
230
1.0
 70
    24
 71
     3
 72
     9
 73
     5
 74
     3
 42
0.000000001
 43
0.0000000001
 44
0.00000001
 40
0.0
 40
0.0
 40
0.0
 40
0.0
 40
0.2267949040585887
 40
0.4535898081172363
 40
0.4535898081172363
 40
0.4535898081172363
 40
0.4535898081172363
 10
83.90826211788703
 20
149.1507924880164
 30
0.0
 10
83.83268532137994
 20
149.1525955401954
 30
0.0
 10
83.68153172836566
 20
149.1562016445534
 30
0.0
 10
83.53037813535141
 20
149.1598077489114
 30
0.0
 10
83.45480133884428
 20
149.1616108010904
 30
0.0
 11
83.90826211788703
 21
149.1507924880164
 31
0.0
 11
83.68153172836566
 21
149.1562016445534
 31
0.0
 11
83.45480133884428
 21
149.1616108010904
 31
0.0
  0
SPLINE
  5
765
330
1F
100
AcDbEntity
  8
Sichtbare_Kanten_TC_020513_DIN_
  6
Continuous
 62
     7
100
AcDbSpline
210
0.0
220
0.0
230
1.0
 70
    24
 71
     3
 72
     9
 73
     5
 74
     3
 42
0.000000001
 43
0.0000000001
 44
0.00000001
 40
0.0
 40
0.0
 40
0.0
 40
0.0
 40
0.2267949040586483
 40
0.4535898081173499
 40
0.4535898081173499
 40
0.4535898081173499
 40
0.4535898081173499
 10
60.17138133535639
 20
149.1616108010904
 30
0.0
 10
60.09580453884924
 20
149.1598077489113
 30
0.0
 10
59.94465094583497
 20
149.1562016445533
 30
0.0
 10
59.79349735282068
 20
149.1525955401954
 30
0.0
 10
59.71792055631352
 20
149.1507924880164
 30
0.0
 11
60.17138133535639
 21
149.1616108010904
 31
0.0
 11
59.94465094583499
 21
149.1562016445534
 31
0.0
 11
59.71792055631352
 21
149.1507924880164
 31
0.0
  0
LWPOLYLINE
  5
766
330
1F
100
AcDbEntity
  8
Sichtbare_Kanten_TC_020513_DIN_
  6
Continuous
 62
     7
100
AcDbPolyline
 90
       25
 70
     0
 43
0.0
 10
177.8016755230024
 20
163.8057694028514
 10
177.8017482406684
 20
163.8220557759894
 10
177.8019520885534
 20
163.8384863923683
 10
177.8022954113073
 20
163.8550564836164
 10
177.8027829773024
 20
163.8717588971754
 10
177.8034207470014
 20
163.8885900567664
 10
177.8042170650554
 20
163.9055428098334
 10
177.8051755077433
 20
163.9226135800973
 10
177.8063032276224
 20
163.9397952150004
 10
177.8076061851574
 20
163.9570829461714
 10
177.8090927249974
 20
163.9744720052374
 10
177.8107652313304
 20
163.9919564317364
 10
177.8126332408974
 20
164.0095302652014
 10
177.8147027141645
 20
164.0271887372624
 10
177.8169772274084
 20
164.0449258874554
 10
177.8194663173745
 20
164.0627369474074
 10
177.8221735603404
 20
164.0806147645604
 10
177.8251061088633
 20
164.0985569547314
 10
177.8282711155005
 20
164.1165551732674
 10
177.8316733486245
 20
164.1346058438914
 10
177.8353533393924
 20
164.1528400968214
 10
177.8393420822214
 20
164.1713401864664
 10
177.8436431533884
 20
164.1900763105054
 10
177.8482613212655
 20
164.2090234349864
 10
177.8532001621314
 20
164.2281541417734
  0
LWPOLYLINE
  5
767
330
1F
100
AcDbEntity
  8
Sichtbare_Kanten_TC_020513_DIN_
  6
Continuous
 62
     7
100
AcDbPolyline
 90
       25
 70
     0
 43
0.0
 10
177.8531083709784
 20
164.2281362603804
 10
177.8640768177104
 20
164.2674157212874
 10
177.8761407978125
 20
164.3064770291944
 10
177.8892991191934
 20
164.3452641557354
 10
177.9035601265024
 20
164.3837115358014
 10
177.9189464695044
 20
164.4217571805614
 10
177.9354331142495
 20
164.4593498300214
 10
177.9529938346934
 20
164.4964382241864
 10
177.9716000206064
 20
164.5329687188764
 10
177.9912254459455
 20
164.5688924382824
 10
178.0118415004804
 20
164.6041557382244
 10
178.0334207660744
 20
164.6387085508004
 10
178.0559358245914
 20
164.6724996160164
 10
178.0793592578955
 20
164.7054764817854
 10
178.1036624557564
 20
164.7375890802044
 10
178.1288191921304
 20
164.7687849591864
 10
178.1548008567884
 20
164.7990140508314
 10
178.1815800315924
 20
164.8282227109564
 10
178.2093748695444
 20
164.8566290925634
 10
178.2384595520084
 20
164.8844883035324
 10
178.2687887794564
 20
164.9116906713144
 10
178.3003112918924
 20
164.9381289075514
 10
178.3329805976935
 20
164.9636909555094
 10
178.3667466289594
 20
164.9882695268294
 10
178.4015605098794
 20
165.0117537568704
  0
LWPOLYLINE
  5
768
330
1F
100
AcDbEntity
  8
Sichtbare_Kanten_TC_020513_DIN_
  6
Continuous
 62
     7
100
AcDbPolyline
 90
       25
 70
     0
 43
0.0
 10
178.4015605098794
 20
165.0117537568704
 10
178.4489366657324
 20
165.0441441129344
 10
178.4943899757454
 20
165.0785121511114
 10
178.5377976543495
 20
165.1145896505014
 10
178.5790416843483
 20
165.1521107743874
 10
178.6179992801734
 20
165.1908073018684
 10
178.6548766738964
 20
165.2307853292124
 10
178.6903664714885
 20
165.2727624963424
 10
178.7243995315624
 20
165.3166446279184
 10
178.7568733341284
 20
165.3623005937234
 10
178.7876817829203
 20
165.4095968793524
 10
178.8167223579474
 20
165.4584035466804
 10
178.8438901550364
 20
165.5085846971173
 10
178.8690802700114
 20
165.5600092004434
 10
178.8921889907904
 20
165.6125447343484
 10
178.9131126052924
 20
165.6660589765203
 10
178.9317927009654
 20
165.7204017232554
 10
178.9482340461805
 20
165.7753965448044
 10
178.9624473697734
 20
165.8308634351394
 10
178.9744434005804
 20
165.8866235803263
 10
178.9842352516243
 20
165.9424969743384
 10
178.9918312675544
 20
165.9983048032424
 10
178.9972433693004
 20
166.0538658689154
 10
179.0004822856974
 20
166.1090025495184
 10
179.0015599376744
 20
166.1635348390234
  0
LWPOLYLINE
  5
769
330
1F
100
AcDbEntity
  8
Sichtbare_Kanten_TC_020513_DIN_
  6
Continuous
 62
     7
100
AcDbPolyline
 90
       25
 70
     0
 43
0.0
 10
178.9403173572604
 20
166.2544009278914
 10
178.9281353599614
 20
166.2189647744794
 10
178.9148792869635
 20
166.1838743280073
 10
178.9005586750094
 20
166.1491903852124
 10
178.8851663715424
 20
166.1149725507394
 10
178.8687440998144
 20
166.0812673162114
 10
178.8513359672604
 20
166.0481164048804
 10
178.8329884655065
 20
166.0155651162764
 10
178.8137433178014
 20
165.9836575578344
 10
178.7936482078615
 20
165.9524354528084
 10
178.7727472431244
 20
165.9219429086344
 10
178.7510857231205
 20
165.8922252248424
 10
178.7287065631924
 20
165.8633241246834
 10
178.7056574470585
 20
165.8352849076884
 10
178.6819812900604
 20
165.8081504892004
 10
178.6577233917294
 20
165.7819649766583
 10
178.6328527576515
 20
165.7566878389014
 10
178.6070367939054
 20
165.7319590638774
 10
178.5802600032864
 20
165.7077810357704
 10
178.5525605327664
 20
165.6842145513194
 10
178.5239777214114
 20
165.6613192151684
 10
178.4945473320064
 20
165.6391570161474
 10
178.4643087036194
 20
165.6177875589033
 10
178.4333011753145
 20
165.5972728322644
 10
178.4015605098784
 20
165.5776724408764
  0
LWPOLYLINE
  5
76A
330
1F
100
AcDbEntity
  8
Sichtbare_Kanten_TC_020513_DIN_
  6
Continuous
 62
     7
100
AcDbPolyline
 90
       25
 70
     0
 43
0.0
 10
178.4015605098784
 20
165.5776724408764
 10
178.3551904804294
 20
165.5485460351604
 10
178.3104643470824
 20
165.5174824784894
 10
178.2675060875004
 20
165.4846760820043
 10
178.2264361030644
 20
165.4503223489424
 10
178.1873783714354
 20
165.4146120141643
 10
178.1504175312105
 20
165.3777024339334
 10
178.1149599201265
 20
165.3389653752944
 10
178.0808469898284
 20
165.2982256005903
 10
178.0482062942564
 20
165.2556178163184
 10
178.0171606189795
 20
165.2112791131634
 10
177.9878387100284
 20
165.1653430055274
 10
177.9603645450654
 20
165.1179441999094
 10
177.9348644859374
 20
165.0692197869914
 10
177.9114648944915
 20
165.0193044732704
 10
177.8902909404815
 20
164.9683317731514
 10
177.8714284545964
 20
164.9164554666174
 10
177.8548702842775
 20
164.8638615201614
 10
177.8405913955754
 20
164.8107430528303
 10
177.8285715229094
 20
164.7572943757673
 10
177.8187880165165
 20
164.7037062238354
 10
177.8112170345364
 20
164.6501741002693
 10
177.8058371192994
 20
164.5968887399334
 10
177.8026256210394
 20
164.5440444539684
 10
177.8015598899904
 20
164.4918331693304
  0
LWPOLYLINE
  5
76B
330
1F
100
AcDbEntity
  8
Sichtbare_Kanten_TC_020513_DIN_
  6
Continuous
 62
     7
100
AcDbPolyline
 90
       25
 70
     0
 43
0.0
 10
176.5015599376744
 20
165.3994962762494
 10
176.5021440631924
 20
165.4372844289443
 10
176.5038988239354
 20
165.4754182885784
 10
176.5068337566434
 20
165.5138227533004
 10
176.5109548217833
 20
165.5524215291634
 10
176.5162679798184
 20
165.5911383222244
 10
176.5227815754004
 20
165.6298968385353
 10
176.5305027610845
 20
165.6686207841534
 10
176.5394386894284
 20
165.7072350572244
 10
176.5495953208985
 20
165.7456633638043
 10
176.5609798080504
 20
165.7838306020394
 10
176.5736004955354
 20
165.8216580937994
 10
176.5874633438174
 20
165.8590719293254
 10
176.6025719291745
 20
165.8959981988564
 10
176.6188964492865
 20
165.9323772977484
 10
176.6363856441565
 20
165.9681567739144
 10
176.6549906379764
 20
166.0032829831734
 10
176.6746577865664
 20
166.0377022813454
 10
176.6953382141174
 20
166.0713634084364
 10
176.7169818527284
 20
166.1042115281713
 10
176.7395362503114
 20
166.1361941884654
 10
176.7629513389654
 20
166.1672565530434
 10
176.7871758586944
 20
166.1973473619124
 10
176.8121609336914
 20
166.2264129708904
 10
176.8378529197754
 20
166.2544009278914
  0
LWPOLYLINE
  5
76C
330
1F
100
AcDbEntity
  8
Sichtbare_Kanten_TC_020513_DIN_
  6
Continuous
 62
     7
100
AcDbPolyline
 90
       25
 70
     0
 43
0.0
 10
147.1499201900554
 20
164.2281541417734
 10
147.1548590309214
 20
164.2090234349864
 10
147.1594771987984
 20
164.1900763105054
 10
147.1637782699654
 20
164.1713401864664
 10
147.1677670127934
 20
164.1528400968214
 10
147.1714470035624
 20
164.1346058438914
 10
147.1748492366864
 20
164.1165551732674
 10
147.1780142433235
 20
164.0985569547314
 10
147.1809467918464
 20
164.0806147645604
 10
147.1836540348124
 20
164.0627369474074
 10
147.1861431247784
 20
164.0449258874554
 10
147.1884176380224
 20
164.0271887372624
 10
147.1904871112894
 20
164.0095302652014
 10
147.1923551208564
 20
163.9919564317364
 10
147.1940276271894
 20
163.9744720052374
 10
147.1955141670294
 20
163.9570829461714
 10
147.1968171245644
 20
163.9397952150004
 10
147.1979448444434
 20
163.9226135800973
 10
147.1989032871314
 20
163.9055428098334
 10
147.1996996051854
 20
163.8885900567664
 10
147.2003373748844
 20
163.8717588971754
 10
147.2008249408794
 20
163.8550564836164
 10
147.2011682636335
 20
163.8384863923683
 10
147.2013721115184
 20
163.8220557759894
 10
147.2014448291855
 20
163.8057694028514
  0
LWPOLYLINE
  5
76D
330
1F
100
AcDbEntity
  8
Sichtbare_Kanten_TC_020513_DIN_
  6
Continuous
 62
     7
100
AcDbPolyline
 90
       25
 70
     0
 43
0.0
 10
146.6015598423074
 20
165.0117537568704
 10
146.6363737232274
 20
164.9882695268294
 10
146.6701397544935
 20
164.9636909555094
 10
146.7028090602944
 20
164.9381289075514
 10
146.7343315727304
 20
164.9116906713144
 10
146.7646608001774
 20
164.8844883035324
 10
146.7937454826424
 20
164.8566290925634
 10
146.8215403205944
 20
164.8282227109564
 10
146.8483194953984
 20
164.7990140508314
 10
146.8743011600564
 20
164.7687849591864
 10
146.8994578964305
 20
164.7375890802044
 10
146.9237610942914
 20
164.7054764817854
 10
146.9471845275944
 20
164.6724996160164
 10
146.9696995861124
 20
164.6387085508004
 10
146.9912788517064
 20
164.6041557382244
 10
147.0118949062414
 20
164.5688924382824
 10
147.0315203315804
 20
164.5329687188764
 10
147.0501265174934
 20
164.4964382241864
 10
147.0676872379374
 20
164.4593498300214
 10
147.0841738826824
 20
164.4217571805614
 10
147.0995602256844
 20
164.3837115358014
 10
147.1138212329934
 20
164.3452641557354
 10
147.1269795543744
 20
164.3064770291944
 10
147.1390435344764
 20
164.2674157212874
 10
147.1500119812084
 20
164.2281362603804
  0
LWPOLYLINE
  5
76E
330
1F
100
AcDbEntity
  8
Sichtbare_Kanten_TC_020513_DIN_
  6
Continuous
 62
     7
100
AcDbPolyline
 90
       25
 70
     0
 43
0.0
 10
148.1652674324095
 20
166.2544009278914
 10
148.1909594184934
 20
166.2264129708904
 10
148.2159444934904
 20
166.1973473619124
 10
148.2401690132203
 20
166.1672565530434
 10
148.2635841018735
 20
166.1361941884654
 10
148.2861384994574
 20
166.1042115281713
 10
148.3077821380674
 20
166.0713634084364
 10
148.3284625656195
 20
166.0377022813454
 10
148.3481297142095
 20
166.0032829831734
 10
148.3667347080294
 20
165.9681567739144
 10
148.3842239028994
 20
165.9323772977484
 10
148.4005484230104
 20
165.8959981988564
 10
148.4156570083684
 20
165.8590719293254
 10
148.4295198566504
 20
165.8216580937994
 10
148.4421405441344
 20
165.7838306020394
 10
148.4535250312864
 20
165.7456633638043
 10
148.4636816627565
 20
165.7072350572244
 10
148.4726175911014
 20
165.6686207841534
 10
148.4803387767854
 20
165.6298968385353
 10
148.4868523723665
 20
165.5911383222244
 10
148.4921655304014
 20
165.5524215291634
 10
148.4962865955414
 20
165.5138227533004
 10
148.4992215282505
 20
165.4754182885784
 10
148.5009762889924
 20
165.4372844289443
 10
148.5015604145115
 20
165.3994962762494
  0
LWPOLYLINE
  5
76F
330
1F
100
AcDbEntity
  8
Sichtbare_Kanten_TC_020513_DIN_
  6
Continuous
 62
     7
100
AcDbPolyline
 90
       25
 70
     0
 43
0.0
 10
147.2015604621954
 20
164.4918331693304
 10
147.2004947311464
 20
164.5440444539684
 10
147.1972832328854
 20
164.5968887399334
 10
147.1919033176484
 20
164.6501741002693
 10
147.1843323356694
 20
164.7037062238354
 10
147.1745488292754
 20
164.7572943757673
 10
147.1625289566105
 20
164.8107430528303
 10
147.1482500679074
 20
164.8638615201614
 10
147.1316918975895
 20
164.9164554666174
 10
147.1128294117034
 20
164.9683317731514
 10
147.0916554576934
 20
165.0193044732704
 10
147.0682558662475
 20
165.0692197869914
 10
147.0427558071204
 20
165.1179441999094
 10
147.0152816421575
 20
165.1653430055274
 10
146.9859597332064
 20
165.2112791131634
 10
146.9549140579284
 20
165.2556178163184
 10
146.9222733623565
 20
165.2982256005903
 10
146.8881604320584
 20
165.3389653752944
 10
146.8527028209754
 20
165.3777024339334
 10
146.8157419807494
 20
165.4146120141643
 10
146.7766842491214
 20
165.4503223489424
 10
146.7356142646854
 20
165.4846760820043
 10
146.6926560051024
 20
165.5174824784894
 10
146.6479298717565
 20
165.5485460351604
 10
146.6015598423064
 20
165.5776724408764
  0
LWPOLYLINE
  5
770
330
1F
100
AcDbEntity
  8
Sichtbare_Kanten_TC_020513_DIN_
  6
Continuous
 62
     7
100
AcDbPolyline
 90
       25
 70
     0
 43
0.0
 10
179.0015599376744
 20
166.6413971971173
 10
179.0014574176854
 20
166.6255709718363
 10
179.0011486656254
 20
166.6096732209814
 10
179.0006336814944
 20
166.5937134812963
 10
178.9999100811065
 20
166.5776965211524
 10
178.9989778644624
 20
166.5616271089214
 10
178.9978358394684
 20
166.5455123971594
 10
178.9964840061255
 20
166.5293571542404
 10
178.9949187881534
 20
166.5131685327194
 10
178.9931425697394
 20
166.4969536851544
 10
178.9911517746034
 20
166.4807149957314
 10
178.9889464027465
 20
166.4644620011944
 10
178.9865252620764
 20
166.4481970857284
 10
178.9838883525914
 20
166.4319274018904
 10
178.9810344821995
 20
166.4156624864234
 10
178.9779612667144
 20
166.3994023393294
 10
178.9746687061374
 20
166.3831588815344
 10
178.9711556083744
 20
166.3669321130414
 10
178.9674219734254
 20
166.3507339547774
 10
178.9634654171055
 20
166.3345644067423
 10
178.9592859394134
 20
166.3184330056803
 10
178.9548823482573
 20
166.3023445199623
 10
178.9502534515444
 20
166.2863061021464
 10
178.9453992492734
 20
166.2703225206034
 10
178.9403173572604
 20
166.2544009278914
  0
LWPOLYLINE
  5
771
330
1F
100
AcDbEntity
  8
Sichtbare_Kanten_TC_020513_DIN_
  6
Continuous
 62
     7
100
AcDbPolyline
 90
       25
 70
     0
 43
0.0
 10
176.8378529197754
 20
166.2544009278914
 10
176.8489322311464
 20
166.2659236978194
 10
176.8601212150634
 20
166.2772628854414
 10
176.8714997417515
 20
166.2884876321454
 10
176.8830821163244
 20
166.2996122430464
 10
176.8948623783174
 20
166.3106295655863
 10
176.9068381435454
 20
166.3215324472084
 10
176.9190058357305
 20
166.3323185037274
 10
176.9313606864994
 20
166.3429805825844
 10
176.9438991195744
 20
166.3535139154093
 10
176.9566187507694
 20
166.3639137338294
 10
176.9695136196204
 20
166.3741752694744
 10
176.9825825340334
 20
166.3842937539714
 10
176.9958207256384
 20
166.3942620347634
 10
177.0092246181554
 20
166.4040753434794
 10
177.0227906353064
 20
166.4137289117473
 10
177.0365140087195
 20
166.4232179711954
 10
177.0503935463014
 20
166.4325377534524
 10
177.0644220954954
 20
166.4416811059614
 10
177.0785984642095
 20
166.4506456445354
 10
177.0929190761624
 20
166.4594242166174
 10
177.1073791629854
 20
166.4680120538374
 10
177.1219751483984
 20
166.4764020036354
 10
177.1367034561224
 20
166.4845940660134
 10
177.1515605098784
 20
166.4925763200424
  0
LWPOLYLINE
  5
772
330
1F
100
AcDbEntity
  8
Sichtbare_Kanten_TC_020513_DIN_
  6
Continuous
 62
     7
100
AcDbPolyline
 90
       25
 70
     0
 43
0.0
 10
177.1515605098784
 20
166.4925763200424
 10
177.2015449649874
 20
166.5205809663434
 10
177.2499069816654
 20
166.5508648942604
 10
177.2964987403934
 20
166.5832230638164
 10
177.3411736137455
 20
166.6174528192184
 10
177.3837825901094
 20
166.6533443521163
 10
177.4241790420595
 20
166.6906973909034
 10
177.4623498565734
 20
166.7294523309363
 10
177.4990007526465
 20
166.7703482698094
 10
177.5341400749275
 20
166.8133875917094
 10
177.5676211959903
 20
166.8584224771154
 10
177.5993034488744
 20
166.9052931855813
 10
177.6290402061525
 20
166.9538447450294
 10
177.6566908008634
 20
167.0039293359413
 10
177.6821109897674
 20
167.0553848336834
 10
177.7051553375304
 20
167.1080634187354
 10
177.7256962902134
 20
167.1618005822793
 10
177.7437123901434
 20
167.2163960527074
 10
177.7592334396425
 20
167.2716257165563
 10
177.7722868568484
 20
167.3272726129193
 10
177.7829024440824
 20
167.3831126283304
 10
177.7911088115754
 20
167.4389240335124
 10
177.7969345695555
 20
167.4944850991864
 10
177.8004083282534
 20
167.5495788644454
 10
177.8015598899904
 20
167.6039788316384
  0
LWPOLYLINE
  5
773
330
1F
100
AcDbEntity
  8
Sichtbare_Kanten_TC_020513_DIN_
  6
Continuous
 62
     7
100
AcDbPolyline
 90
       25
 70
     0
 43
0.0
 10
177.8015598899904
 20
171.0783574174544
 10
177.7998468524994
 20
171.1549899171484
 10
177.7945766098085
 20
171.2324974130294
 10
177.7855584270534
 20
171.3103959153784
 10
177.7725979930934
 20
171.3881990502974
 10
177.7555009967864
 20
171.4654204438824
 10
177.7340767032684
 20
171.5415761064184
 10
177.7081308013974
 20
171.6161796640054
 10
177.6775083190973
 20
171.6887828897134
 10
177.6422724372924
 20
171.7590400766034
 10
177.6025495178284
 20
171.8266269754074
 10
177.5584683067384
 20
171.8912193368574
 10
177.5101563579615
 20
171.9524929116864
 10
177.4577400333465
 20
172.0101234506264
 10
177.4013409263664
 20
172.0637914727824
 10
177.3396715766965
 20
172.1142766069074
 10
177.2721526271874
 20
172.1617457460064
 10
177.1993693954524
 20
172.2054216455123
 10
177.1219060070094
 20
172.2445246766704
 10
177.0403489715634
 20
172.2782823632854
 10
176.9553658611354
 20
172.3060724328654
 10
176.8679377681794
 20
172.3277613710064
 10
176.7791220790924
 20
172.3433038781774
 10
176.6899773723665
 20
172.3526594232214
 10
176.6015598423064
 20
172.3557874749794
  0
LWPOLYLINE
  5
774
330
1F
100
AcDbEntity
  8
Sichtbare_Kanten_TC_020513_DIN_
  6
Continuous
 62
     7
100
AcDbPolyline
 90
       25
 70
     0
 43
0.0
 10
146.6015598423064
 20
165.5776724408764
 10
146.5701028949804
 20
165.5970975946083
 10
146.5393135196744
 20
165.6174668859144
 10
146.5092239028994
 20
165.6387290547984
 10
146.4798674232544
 20
165.6608364175453
 10
146.4512750751554
 20
165.6837377141614
 10
146.4234766609254
 20
165.7073828767433
 10
146.3965079433503
 20
165.7317218373914
 10
146.3703975326604
 20
165.7567045282024
 10
146.3451788074553
 20
165.7822808812754
 10
146.3208827621525
 20
165.8084008287094
 10
146.2975415832584
 20
165.8350143026013
 10
146.2750503665984
 20
165.8622464727064
 10
146.2530562526764
 20
165.8905527185104
 10
146.2316057331144
 20
165.9198960851324
 10
146.2107739097654
 20
165.9502050470014
 10
146.1906335002964
 20
165.9814092706334
 10
146.1712596065584
 20
166.0134348462714
 10
146.1527285224975
 20
166.0462114404334
 10
146.1351117736874
 20
166.0796687196394
 10
146.1184856540745
 20
166.1137327741284
 10
146.1029228813234
 20
166.1483320783274
 10
146.0884413368284
 20
166.1833736489913
 10
146.0750589019834
 20
166.2187621186874
 10
146.0628029949254
 20
166.2544009278914
  0
LWPOLYLINE
  5
775
330
1F
100
AcDbEntity
  8
Sichtbare_Kanten_TC_020513_DIN_
  6
Continuous
 62
     7
100
AcDbPolyline
 90
       25
 70
     0
 43
0.0
 10
146.0015604145115
 20
166.1635348390234
 10
146.0026380664895
 20
166.1090025495184
 10
146.0058769828864
 20
166.0538658689154
 10
146.0112890846324
 20
165.9983048032424
 10
146.0188851005624
 20
165.9424969743384
 10
146.0286769516064
 20
165.8866235803263
 10
146.0406729824134
 20
165.8308634351394
 10
146.0548863060064
 20
165.7753965448044
 10
146.0713276512214
 20
165.7204017232554
 10
146.0900077468943
 20
165.6660589765203
 10
146.1109313613964
 20
165.6125447343484
 10
146.1340400821754
 20
165.5600092004434
 10
146.1592301971505
 20
165.5085846971173
 10
146.1863979942394
 20
165.4584035466804
 10
146.2154385692664
 20
165.4095968793524
 10
146.2462470180584
 20
165.3623005937234
 10
146.2787208206244
 20
165.3166446279184
 10
146.3127538806984
 20
165.2727624963424
 10
146.3482436782904
 20
165.2307853292124
 10
146.3851210720134
 20
165.1908073018684
 10
146.4240786678384
 20
165.1521107743874
 10
146.4653226978375
 20
165.1145896505014
 10
146.5087303764415
 20
165.0785121511114
 10
146.5541836864544
 20
165.0441441129344
 10
146.6015598423074
 20
165.0117537568704
  0
LWPOLYLINE
  5
776
330
1F
100
AcDbEntity
  8
Sichtbare_Kanten_TC_020513_DIN_
  6
Continuous
 62
     7
100
AcDbPolyline
 90
       25
 70
     0
 43
0.0
 10
148.4015605098784
 20
172.3557874749794
 10
148.3131429798184
 20
172.3526594232214
 10
148.2239982730924
 20
172.3433038781774
 10
148.1351825840054
 20
172.3277613710064
 10
148.0477544910484
 20
172.3060724328654
 10
147.9627713806215
 20
172.2782823632854
 10
147.8812143451744
 20
172.2445246766704
 10
147.8037509567314
 20
172.2054216455123
 10
147.7309677249964
 20
172.1617457460064
 10
147.6634487754884
 20
172.1142766069074
 10
147.6017794258174
 20
172.0637914727824
 10
147.5453803188384
 20
172.0101234506264
 10
147.4929639942225
 20
171.9524929116864
 10
147.4446520454465
 20
171.8912193368574
 10
147.4005708343564
 20
171.8266269754074
 10
147.3608479148925
 20
171.7590400766034
 10
147.3256120330874
 20
171.6887828897134
 10
147.2949895507875
 20
171.6161796640054
 10
147.2690436489164
 20
171.5415761064184
 10
147.2476193553985
 20
171.4654204438824
 10
147.2305223590914
 20
171.3881990502974
 10
147.2175619251314
 20
171.3103959153784
 10
147.2085437423764
 20
171.2324974130294
 10
147.2032734996853
 20
171.1549899171484
 10
147.2015604621944
 20
171.0783574174544
  0
LWPOLYLINE
  5
777
330
1F
100
AcDbEntity
  8
Sichtbare_Kanten_TC_020513_DIN_
  6
Continuous
 62
     7
100
AcDbPolyline
 90
       25
 70
     0
 43
0.0
 10
147.2015604621954
 20
167.6039788316384
 10
147.2027120239325
 20
167.5495788644454
 10
147.2061857826294
 20
167.4944850991864
 10
147.2120115406104
 20
167.4389240335124
 10
147.2202179081024
 20
167.3831126283304
 10
147.2308334953374
 20
167.3272726129193
 10
147.2438869125434
 20
167.2716257165563
 10
147.2594079620424
 20
167.2163960527074
 10
147.2774240619724
 20
167.1618005822793
 10
147.2979650146544
 20
167.1080634187354
 10
147.3210093624174
 20
167.0553848336834
 10
147.3464295513214
 20
167.0039293359413
 10
147.3740801460324
 20
166.9538447450294
 10
147.4038169033114
 20
166.9052931855813
 10
147.4354991561954
 20
166.8584224771154
 10
147.4689802772584
 20
166.8133875917094
 10
147.5041195995394
 20
166.7703482698094
 10
147.5407704956115
 20
166.7294523309363
 10
147.5789413101254
 20
166.6906973909034
 10
147.6193377620755
 20
166.6533443521163
 10
147.6619467384404
 20
166.6174528192184
 10
147.7066216117923
 20
166.5832230638164
 10
147.7532133705204
 20
166.5508648942604
 10
147.8015753871985
 20
166.5205809663434
 10
147.8515598423064
 20
166.4925763200424
  0
LWPOLYLINE
  5
778
330
1F
100
AcDbEntity
  8
Sichtbare_Kanten_TC_020513_DIN_
  6
Continuous
 62
     7
100
AcDbPolyline
 90
       25
 70
     0
 43
0.0
 10
147.8515598423064
 20
166.4925763200424
 10
147.8664168960634
 20
166.4845940660134
 10
147.8811452037874
 20
166.4764020036354
 10
147.8957411892004
 20
166.4680120538374
 10
147.9102012760225
 20
166.4594242166174
 10
147.9245218879764
 20
166.4506456445354
 10
147.9386982566894
 20
166.4416811059614
 10
147.9527268058844
 20
166.4325377534524
 10
147.9666063434664
 20
166.4232179711954
 10
147.9803297168794
 20
166.4137289117473
 10
147.9938957340304
 20
166.4040753434794
 10
148.0072996265474
 20
166.3942620347634
 10
148.0205378181524
 20
166.3842937539714
 10
148.0336067325654
 20
166.3741752694744
 10
148.0465016014164
 20
166.3639137338294
 10
148.0592212326114
 20
166.3535139154093
 10
148.0717596656864
 20
166.3429805825844
 10
148.0841145164554
 20
166.3323185037274
 10
148.0962822086394
 20
166.3215324472084
 10
148.1082579738684
 20
166.3106295655863
 10
148.1200382358614
 20
166.2996122430464
 10
148.1316206104344
 20
166.2884876321454
 10
148.1429991371215
 20
166.2772628854414
 10
148.1541881210394
 20
166.2659236978194
 10
148.1652674324095
 20
166.2544009278914
  0
LWPOLYLINE
  5
779
330
1F
100
AcDbEntity
  8
Sichtbare_Kanten_TC_020513_DIN_
  6
Continuous
 62
     7
100
AcDbPolyline
 90
       25
 70
     0
 43
0.0
 10
146.0628029949254
 20
166.2544009278914
 10
146.0577211029114
 20
166.2703225206034
 10
146.0528669006415
 20
166.2863061021464
 10
146.0482380039274
 20
166.3023445199623
 10
146.0438344127714
 20
166.3184330056803
 10
146.0396549350804
 20
166.3345644067423
 10
146.0356983787603
 20
166.3507339547774
 10
146.0319647438114
 20
166.3669321130414
 10
146.0284516460484
 20
166.3831588815344
 10
146.0251590854705
 20
166.3994023393294
 10
146.0220858699864
 20
166.4156624864234
 10
146.0192319995945
 20
166.4319274018904
 10
146.0165950901094
 20
166.4481970857284
 10
146.0141739494384
 20
166.4644620011944
 10
146.0119685775824
 20
166.4807149957314
 10
146.0099777824464
 20
166.4969536851544
 10
146.0082015640325
 20
166.5131685327194
 10
146.0066363460604
 20
166.5293571542404
 10
146.0052845127163
 20
166.5455123971594
 10
146.0041424877225
 20
166.5616271089214
 10
146.0032102710784
 20
166.5776965211524
 10
146.0024866706914
 20
166.5937134812963
 10
146.0019716865604
 20
166.6096732209814
 10
146.0016629345005
 20
166.6255709718363
 10
146.0015604145115
 20
166.6413971971173
  0
LWPOLYLINE
  5
77A
330
1F
100
AcDbEntity
  8
Sichtbare_Kanten_TC_020513_DIN_
  6
Continuous
 62
     7
100
AcDbPolyline
 90
       25
 70
     0
 43
0.0
 10
179.0015599376734
 20
171.0783574174544
 10
178.9982876426755
 20
171.2265512536664
 10
178.9881238586484
 20
171.3754555772444
 10
178.9705547935544
 20
171.5240284989974
 10
178.9450642711694
 20
171.6712376664773
 10
178.9111337310844
 20
171.8160411904943
 10
178.8682505733544
 20
171.9574067186014
 10
178.8158926612914
 20
172.0942947457924
 10
178.7536630279594
 20
172.2258612702984
 10
178.6817702896174
 20
172.3515793870584
 10
178.6005565769254
 20
172.4709603379864
 10
178.5103664047294
 20
172.5835129808084
 10
178.4115442878784
 20
172.6887437890663
 10
178.3044311649373
 20
172.7861616204874
 10
178.1890103466094
 20
172.8755352090494
 10
178.0625233299314
 20
172.9586717675824
 10
177.9252872116144
 20
173.0352875779764
 10
177.7784928924614
 20
173.1044814180033
 10
177.6233312732754
 20
173.1653544496194
 10
177.4609956390434
 20
173.2170054505963
 10
177.2929105407764
 20
173.2589742730754
 10
177.1209714061795
 20
173.2913801263464
 10
176.9471320755054
 20
173.3143565248144
 10
176.7733440048274
 20
173.3280417512554
 10
176.6015598423054
 20
173.3325717042584
  0
LWPOLYLINE
  5
77B
330
1F
100
AcDbEntity
  8
Sichtbare_Kanten_TC_020513_DIN_
  6
Continuous
 62
     7
100
AcDbPolyline
 90
       25
 70
     0
 43
0.0
 10
148.4015605098774
 20
173.3325717042584
 10
148.2297763473564
 20
173.3280417512554
 10
148.0559882766775
 20
173.3143565248144
 10
147.8821489460045
 20
173.2913801263464
 10
147.7102098114065
 20
173.2589742730754
 10
147.5421247131404
 20
173.2170054505963
 10
147.3797890789084
 20
173.1653544496194
 10
147.2246274597223
 20
173.1044814180033
 10
147.0778331405694
 20
173.0352875779764
 10
146.9405970222524
 20
172.9586717675824
 10
146.8141100055755
 20
172.8755352090494
 10
146.6986891872464
 20
172.7861616204874
 10
146.5915760643064
 20
172.6887437890663
 10
146.4927539474544
 20
172.5835129808084
 10
146.4025637752584
 20
172.4709603379864
 10
146.3213500625664
 20
172.3515793870584
 10
146.2494573242244
 20
172.2258612702984
 10
146.1872276908935
 20
172.0942947457924
 10
146.1348697788294
 20
171.9574067186014
 10
146.0919866210994
 20
171.8160411904943
 10
146.0580560810145
 20
171.6712376664773
 10
146.0325655586304
 20
171.5240284989974
 10
146.0149964935364
 20
171.3754555772444
 10
146.0048327095094
 20
171.2265512536664
 10
146.0015604145115
 20
171.0783574174544
  0
LWPOLYLINE
  5
77C
330
1F
100
AcDbEntity
  8
Sichtbare_Kanten_TC_020513_DIN_
  6
Continuous
 62
     7
100
AcDbPolyline
 90
       25
 70
     0
 43
0.0
 10
171.4816919214304
 20
179.2606446336404
 10
171.4582607395234
 20
179.2877170632974
 10
171.4350995666564
 20
179.3157145570414
 10
171.4122930414254
 20
179.3445584367414
 10
171.3899240142885
 20
179.3741676400794
 10
171.3680765277924
 20
179.4044634889264
 10
171.3468346244874
 20
179.4353601525924
 10
171.3262817508754
 20
179.4667837213174
 10
171.3064715511384
 20
179.4986388276714
 10
171.2874314434114
 20
179.5308014939923
 10
171.2691906339704
 20
179.5631548951764
 10
171.2517759449064
 20
179.5955774377484
 10
171.2352153904024
 20
179.6279499124184
 10
171.2195375806864
 20
179.6601483415264
 10
171.2047693378504
 20
179.6920558999673
 10
171.1909070856154
 20
179.7236392091414
 10
171.1775306112344
 20
179.7559735368384
 10
171.1645618326244
 20
179.7891685556074
 10
171.1520746595444
 20
179.8229119371073
 10
171.1401447898925
 20
179.8568937371863
 10
171.1288461334284
 20
179.8908016275064
 10
171.1182537920054
 20
179.9243256639134
 10
171.1084422714293
 20
179.9571511338843
 10
171.0994866735514
 20
179.9889680932654
 10
171.0914615041794
 20
180.0194642137184
  0
LWPOLYLINE
  5
77D
330
1F
100
AcDbEntity
  8
Sichtbare_Kanten_TC_020513_DIN_
  6
Continuous
 62
     7
100
AcDbPolyline
 90
       25
 70
     0
 43
0.0
 10
153.9116588480054
 20
180.0194642137184
 10
153.9036336786325
 20
179.9889680932654
 10
153.8946780807554
 20
179.9571511338843
 10
153.8848665601784
 20
179.9243256639134
 10
153.8742742187554
 20
179.8908016275064
 10
153.8629755622924
 20
179.8568937371863
 10
153.8510456926404
 20
179.8229119371073
 10
153.8385585195604
 20
179.7891685556074
 10
153.8255897409495
 20
179.7559735368384
 10
153.8122132665694
 20
179.7236392091414
 10
153.7983510143334
 20
179.6920558999673
 10
153.7835827714974
 20
179.6601483415264
 10
153.7679049617824
 20
179.6279499124184
 10
153.7513444072783
 20
179.5955774377484
 10
153.7339297182144
 20
179.5631548951764
 10
153.7156889087735
 20
179.5308014939923
 10
153.6966488010464
 20
179.4986388276714
 10
153.6768386013084
 20
179.4667837213174
 10
153.6562857276974
 20
179.4353601525924
 10
153.6350438243924
 20
179.4044634889264
 10
153.6131963378964
 20
179.3741676400794
 10
153.5908273107584
 20
179.3445584367414
 10
153.5680207855285
 20
179.3157145570414
 10
153.5448596126614
 20
179.2877170632974
 10
153.5214284307534
 20
179.2606446336404
  0
LWPOLYLINE
  5
77E
330
1F
100
AcDbEntity
  8
Sichtbare_Kanten_TC_020513_DIN_
  6
Continuous
 62
     7
100
AcDbPolyline
 90
       25
 70
     0
 43
0.0
 10
88.34809714497692
 20
93.27733115164537
 10
88.33054000081188
 20
93.27719644514815
 10
88.31302279175884
 20
93.27682928053636
 10
88.29555624665386
 20
93.27622965780986
 10
88.27814692200786
 20
93.27539876906175
 10
88.26080316247112
 20
93.27433542219896
 10
88.2435333126939
 20
93.27303961722154
 10
88.22634571732647
 20
93.27151135412944
 10
88.2092475289262
 20
93.26975063292284
 10
88.19224709214336
 20
93.26775745360155
 10
88.17535215558178
 20
93.26553181616563
 10
88.15857225598461
 20
93.26307372061504
 10
88.14191335381634
 20
93.26038316694994
 10
88.12538498582012
 20
93.25745896307726
 10
88.10899490059978
 20
93.25430230108995
 10
88.0927377337373
 20
93.25090960470934
 10
88.0765103691972
 20
93.24725941626323
 10
88.06029611767894
 20
93.24334815947316
 10
88.04410153569347
 20
93.23917583433885
 10
88.02793556393749
 20
93.23474601713914
 10
88.01180595101482
 20
93.23005870787395
 10
87.99572044552929
 20
93.22511509863634
 10
87.9796867960847
 20
93.21991757361195
 10
87.96371334733135
 20
93.21446613280077
 10
87.94780725182659
 20
93.20876435248155
  0
LWPOLYLINE
  5
77F
330
1F
100
AcDbEntity
  8
Sichtbare_Kanten_TC_020513_DIN_
  6
Continuous
 62
     7
100
AcDbPolyline
 90
       25
 70
     0
 43
0.0
 10
89.43412715138561
 20
92.62762264219654
 10
89.42769700230724
 20
92.67805294004816
 10
89.42084604443676
 20
92.72672966925043
 10
89.41363745869762
 20
92.77351573912046
 10
89.40613919438488
 20
92.81827286688227
 10
89.3984120482362
 20
92.86086396185306
 10
89.39052516163952
 20
92.90115074125666
 10
89.38252383412487
 20
92.93907240835577
 10
89.37427574338085
 20
92.97537282911685
 10
89.3657713526643
 20
93.01018074957287
 10
89.35705596150524
 20
93.04335907904056
 10
89.3481760615266
 20
93.07477549520874
 10
89.33917695225841
 20
93.10429409948736
 10
89.3301051253236
 20
93.13178256956493
 10
89.32100588025219
 20
93.15710500685137
 10
89.3119257086671
 20
93.18012789694225
 10
89.30291110219127
 20
93.20072368589794
 10
89.29400855244762
 20
93.21884945837414
 10
89.28524786175853
 20
93.23451832739275
 10
89.2766600245393
 20
93.24774102178975
 10
89.26827841939098
 20
93.25853184667986
 10
89.26013284863598
 20
93.26690272299217
 10
89.25225430668957
 20
93.27286676374845
 10
89.24467617215282
 20
93.27643588987755
 10
89.23742705525524
 20
93.27762202230863
  0
LWPOLYLINE
  5
780
330
1F
100
AcDbEntity
  8
Sichtbare_Kanten_TC_020513_DIN_
  6
Continuous
 62
     7
100
AcDbPolyline
 90
       25
 70
     0
 43
0.0
 10
89.74240237416393
 20
91.97762206999167
 10
89.72425156773693
 20
91.97882727590905
 10
89.70646792592174
 20
91.98238805738796
 10
89.68910747708446
 20
91.98822573629727
 10
89.67222863377697
 20
91.99625805822714
 10
89.65588861645824
 20
92.00640753713955
 10
89.64014583768017
 20
92.01859191862454
 10
89.62505751790172
 20
92.03273371664395
 10
89.6103339785493
 20
92.04913691488625
 10
89.59573441685802
 20
92.06811741796847
 10
89.58133870305187
 20
92.08966330496196
 10
89.56722313107616
 20
92.11376265493757
 10
89.55346995534069
 20
92.14040116278053
 10
89.54015546979076
 20
92.16956809965495
 10
89.52736192883617
 20
92.20125035253884
 10
89.51515012921459
 20
92.23541215864546
 10
89.5035510653413
 20
92.27187112776167
 10
89.49258619488842
 20
92.31040314642317
 10
89.48227935971386
 20
92.35077814070115
 10
89.47265440167553
 20
92.39277080503834
 10
89.46373277844555
 20
92.43615225759885
 10
89.45554071606762
 20
92.48069480863947
 10
89.44793993176586
 20
92.52704099623105
 10
89.44077664555675
 20
92.57609442678827
 10
89.43412715138561
 20
92.62762264219654
  0
LWPOLYLINE
  5
781
330
1F
100
AcDbEntity
  8
Sichtbare_Kanten_TC_020513_DIN_
  6
Continuous
 62
     7
100
AcDbPolyline
 90
       25
 70
     0
 43
0.0
 10
87.94780725182659
 20
62.74648026434673
 10
87.96371334733135
 20
62.74077848402754
 10
87.9796867960847
 20
62.73532704321636
 10
87.99572044552929
 20
62.73012951819194
 10
88.01180595101482
 20
62.72518590895433
 10
88.02793556393749
 20
62.72049859968914
 10
88.04410153569347
 20
62.71606878248943
 10
88.06029611767894
 20
62.71189645735515
 10
88.0765103691972
 20
62.70798520056505
 10
88.0927377337373
 20
62.70433501211895
 10
88.10899490059978
 20
62.70094231573833
 10
88.12538498582012
 20
62.69778565375106
 10
88.14191335381634
 20
62.69486144987835
 10
88.15857225598461
 20
62.69217089621324
 10
88.17535215558178
 20
62.68971280066265
 10
88.19224709214336
 20
62.68748716322673
 10
88.2092475289262
 20
62.68549398390545
 10
88.22634571732647
 20
62.68373326269884
 10
88.2435333126939
 20
62.68220499960674
 10
88.26080316247112
 20
62.68090919462935
 10
88.27814692200786
 20
62.67984584776653
 10
88.29555624665386
 20
62.67901495901836
 10
88.31302279175884
 20
62.67841533629195
 10
88.33054000081188
 20
62.67804817168016
 10
88.34809714497692
 20
62.67791346518297
  0
LWPOLYLINE
  5
782
330
1F
100
AcDbEntity
  8
Sichtbare_Kanten_TC_020513_DIN_
  6
Continuous
 62
     7
100
AcDbPolyline
 90
       25
 70
     0
 43
0.0
 10
89.23742705525524
 20
62.67762259451325
 10
89.24467617215282
 20
62.67880872694425
 10
89.25225430668957
 20
62.68237785307335
 10
89.26013284863598
 20
62.68834189382955
 10
89.26827841939098
 20
62.69671277014183
 10
89.2766600245393
 20
62.70750359503197
 10
89.28524786175853
 20
62.72072628942894
 10
89.29400855244762
 20
62.73639515844744
 10
89.30291110219127
 20
62.75452093092363
 10
89.3119257086671
 20
62.77511671987926
 10
89.32100588025219
 20
62.79813960997026
 10
89.3301051253236
 20
62.82346204725656
 10
89.33917695225841
 20
62.85095051733404
 10
89.3481760615266
 20
62.88046912161266
 10
89.35705596150524
 20
62.91188553778085
 10
89.3657713526643
 20
62.94506386724854
 10
89.37427574338085
 20
62.97987178770447
 10
89.38252383412487
 20
63.01617220846555
 10
89.39052516163952
 20
63.05409387556455
 10
89.3984120482362
 20
63.09438065496826
 10
89.40613919438488
 20
63.13697174993897
 10
89.41363745869762
 20
63.18172887770075
 10
89.42084604443676
 20
63.22851494757074
 10
89.42769700230724
 20
63.27719167677304
 10
89.43412715138561
 20
63.32762197462455
  0
LWPOLYLINE
  5
783
330
1F
100
AcDbEntity
  8
Sichtbare_Kanten_TC_020513_DIN_
  6
Continuous
 62
     7
100
AcDbPolyline
 90
       25
 70
     0
 43
0.0
 10
87.57151836098797
 20
63.97701934782387
 10
87.57158690632946
 20
63.97534326521273
 10
87.57177168072826
 20
63.97258714643834
 10
87.57207208813793
 20
63.96874264685036
 10
87.57248634041912
 20
63.96380499807717
 10
87.57301205338604
 20
63.95776823965434
 10
87.57364922703869
 20
63.95062521902443
 10
87.57439547719127
 20
63.94236997572315
 10
87.5752496117509
 20
63.93299654928575
 10
87.57620984257824
 20
63.92249778715504
 10
87.57727438153393
 20
63.91087011305226
 10
87.57844263257152
 20
63.89810518232716
 10
87.57971221150524
 20
63.88419703451527
 10
87.58107656182415
 20
63.86915401426685
 10
87.58252435864574
 20
63.85301903692627
 10
87.58404844941265
 20
63.83583501783747
 10
87.58563989342815
 20
63.81764606443787
 10
87.58728974999553
 20
63.79849747625727
 10
87.58898967446453
 20
63.77843336073295
 10
87.59073191823131
 20
63.75750020948786
 10
87.59250694455272
 20
63.73573974577326
 10
87.59430700482494
 20
63.71319726911926
 10
87.5961237543977
 20
63.68991927114865
 10
87.59794765652782
 20
63.66594866720587
 10
87.59977155865795
 20
63.64132956472776
  0
LWPOLYLINE
  5
784
330
1F
100
AcDbEntity
  8
Sichtbare_Kanten_TC_020513_DIN_
  6
Continuous
 62
     7
100
AcDbPolyline
 90
       25
 70
     0
 43
0.0
 10
89.43412715138561
 20
63.32762197462455
 10
89.44086724461681
 20
63.37972120252985
 10
89.44823795498974
 20
63.42989877668757
 10
89.45619636716015
 20
63.47800210920704
 10
89.46469479741222
 20
63.52387622801194
 10
89.47368794621593
 20
63.56737092939747
 10
89.48313051404125
 20
63.60833124128715
 10
89.49302369298107
 20
63.64678338972465
 10
89.50357013882763
 20
63.68349508253465
 10
89.51477938832409
 20
63.71847704855335
 10
89.52662759961254
 20
63.75161842314125
 10
89.53909212292797
 20
63.78280714956645
 10
89.55214911641247
 20
63.81192878691084
 10
89.56577473820812
 20
63.83887366262795
 10
89.57994633854992
 20
63.86352733579994
 10
89.59464007557995
 20
63.88577894178744
 10
89.6098321074403
 20
63.90553192106606
 10
89.62547832669384
 20
63.92279342619295
 10
89.6415155524171
 20
63.93760875669835
 10
89.65788060368664
 20
63.95002202001925
 10
89.67451029957897
 20
63.96007732359274
 10
89.69134026707775
 20
63.96781996694915
 10
89.70830732525951
 20
63.97329524961813
 10
89.72534948529369
 20
63.97654847112995
 10
89.74240237416393
 20
63.97762254682885
  0
LWPOLYLINE
  5
785
330
1F
100
AcDbEntity
  8
Sichtbare_Kanten_TC_020513_DIN_
  6
Continuous
 62
     7
100
AcDbPolyline
 90
       25
 70
     0
 43
0.0
 10
87.59977155865795
 20
92.31391505209356
 10
87.59794765652782
 20
92.28929594961545
 10
87.5961237543977
 20
92.26532534567266
 10
87.59430700482494
 20
92.24204734770206
 10
87.59250694455272
 20
92.21950487104797
 10
87.59073191823131
 20
92.19774440733335
 10
87.58898967446453
 20
92.17681125608826
 10
87.58728974999553
 20
92.15674714056397
 10
87.58563989342815
 20
92.13759855238337
 10
87.58404844941265
 20
92.11940959898376
 10
87.58252435864574
 20
92.10222557989496
 10
87.58107656182415
 20
92.08609060255426
 10
87.57971221150524
 20
92.07104758230585
 10
87.57844263257152
 20
92.05713943449396
 10
87.57727438153393
 20
92.04437450376886
 10
87.57620984257824
 20
92.03274682966597
 10
87.5752496117509
 20
92.02224806753526
 10
87.57439547719127
 20
92.01287464109785
 10
87.57364922703869
 20
92.00461939779646
 10
87.57301205338604
 20
91.99747637716655
 10
87.57248634041912
 20
91.99143961874375
 10
87.57207208813793
 20
91.98650196997053
 10
87.57177168072826
 20
91.98265747038246
 10
87.57158690632946
 20
91.97990135160805
 10
87.57151836098797
 20
91.97822526899697
  0
LWPOLYLINE
  5
786
330
1F
100
AcDbEntity
  8
Sichtbare_Kanten_TC_020513_DIN_
  6
Continuous
 62
     7
100
AcDbPolyline
 90
       25
 70
     0
 43
0.0
 10
87.59977155865795
 20
63.64132956472776
 10
87.60056251229412
 20
63.63025025335693
 10
87.6013248557008
 20
63.61906126943975
 10
87.60206454934246
 20
63.60768274275205
 10
87.60278218926555
 20
63.59610036817935
 10
87.60347777547008
 20
63.58432010618597
 10
87.60415250004894
 20
63.57234434095764
 10
87.60480576695568
 20
63.56017664877325
 10
87.60543817223675
 20
63.54782179800415
 10
87.60605031193859
 20
63.53528336492926
 10
87.60664159001476
 20
63.52256373373413
 10
87.60721260251171
 20
63.50966886488345
 10
87.60776454152233
 20
63.49659995047003
 10
87.60829621495373
 20
63.48336175886544
 10
87.60880821885235
 20
63.46995786634835
 10
87.60930174531109
 20
63.45639184919745
 10
87.6097761982835
 20
63.44266847578436
 10
87.61023217381603
 20
63.42878893820196
 10
87.61066967190868
 20
63.41476038900765
 10
87.61108869256145
 20
63.40058402029425
 10
87.61148983182079
 20
63.38626340834057
 10
87.61187368573314
 20
63.37180332151806
 10
87.61224025429851
 20
63.35720733610546
 10
87.61259013356334
 20
63.34247902838146
 10
87.61292213143474
 20
63.32762197462475
  0
LWPOLYLINE
  5
787
330
1F
100
AcDbEntity
  8
Sichtbare_Kanten_TC_020513_DIN_
  6
Continuous
 62
     7
100
AcDbPolyline
 90
       25
 70
     0
 43
0.0
 10
87.61292213143474
 20
63.32762197462475
 10
87.61335366906292
 20
63.30792621580517
 10
87.61378461064464
 20
63.28846291510016
 10
87.61421436013347
 20
63.26924280134594
 10
87.61464053334362
 20
63.25027302709975
 10
87.61506253422863
 20
63.23156432119765
 10
87.61547797860271
 20
63.21312383619696
 10
87.61588507832653
 20
63.19495991674816
 10
87.61628264130718
 20
63.17708329168715
 10
87.61666947545177
 20
63.15950111357125
 10
87.61704319657451
 20
63.14222291914373
 10
87.61740201653606
 20
63.12525705305495
 10
87.61774533928997
 20
63.10861185995495
 10
87.61807078065044
 20
63.09229806867995
 10
87.61837655247814
 20
63.07632283178725
 10
87.61866146268017
 20
63.06069449392714
 10
87.61892372311718
 20
63.04542378393575
 10
87.61916214169628
 20
63.03050831762715
 10
87.61937671841747
 20
63.01583484617635
 10
87.61956506909496
 20
63.00137118307507
 10
87.61972719372875
 20
62.98712448088085
 10
87.61986070813305
 20
62.97310546842974
 10
87.61996442021496
 20
62.95932010618606
 10
87.62003594578869
 20
62.94577793089314
 10
87.62007409276134
 20
62.93248847929405
  0
LWPOLYLINE
  5
788
330
1F
100
AcDbEntity
  8
Sichtbare_Kanten_TC_020513_DIN_
  6
Continuous
 62
     7
100
AcDbPolyline
 90
       25
 70
     0
 43
0.0
 10
87.62007409276134
 20
93.02275613752764
 10
87.62003594578869
 20
93.00946668592857
 10
87.61996442021496
 20
92.99592451063555
 10
87.61986070813305
 20
92.98213914839184
 10
87.61972719372875
 20
92.96812013594075
 10
87.61956506909496
 20
92.95387343374645
 10
87.61937671841747
 20
92.93940977064526
 10
87.61916214169628
 20
92.92473629919445
 10
87.61892372311718
 20
92.90982083288586
 10
87.61866146268017
 20
92.89455012289446
 10
87.61837655247814
 20
92.87892178503435
 10
87.61807078065044
 20
92.86294654814165
 10
87.61774533928997
 20
92.84663275686657
 10
87.61740201653606
 20
92.82998756376654
 10
87.61704319657451
 20
92.81302169767775
 10
87.61666947545177
 20
92.79574350325024
 10
87.61628264130718
 20
92.77816132513433
 10
87.61588507832653
 20
92.76028470007336
 10
87.61547797860271
 20
92.74212078062445
 10
87.61506253422863
 20
92.72368029562384
 10
87.61464053334362
 20
92.70497158972174
 10
87.61421436013347
 20
92.68600181547555
 10
87.61378461064464
 20
92.66678170172125
 10
87.61335366906292
 20
92.64731840101635
 10
87.61292213143474
 20
92.62762264219677
  0
LWPOLYLINE
  5
789
330
1F
100
AcDbEntity
  8
Sichtbare_Kanten_TC_020513_DIN_
  6
Continuous
 62
     7
100
AcDbPolyline
 90
       25
 70
     0
 43
0.0
 10
87.61292213143474
 20
92.62762264219677
 10
87.61259013356334
 20
92.61276558844006
 10
87.61224025429851
 20
92.59803728071606
 10
87.61187368573314
 20
92.58344129530346
 10
87.61148983182079
 20
92.56898120848095
 10
87.61108869256145
 20
92.55466059652716
 10
87.61066967190868
 20
92.54048422781375
 10
87.61023217381603
 20
92.52645567861944
 10
87.6097761982835
 20
92.51257614103704
 10
87.60930174531109
 20
92.49885276762396
 10
87.60880821885235
 20
92.48528675047305
 10
87.60829621495373
 20
92.47188285795593
 10
87.60776454152233
 20
92.45864466635135
 10
87.60721260251171
 20
92.44557575193795
 10
87.60664159001476
 20
92.43268088308727
 10
87.60605031193859
 20
92.41996125189215
 10
87.60543817223675
 20
92.40742281881714
 10
87.60480576695568
 20
92.39506796804815
 10
87.60415250004894
 20
92.38290027586365
 10
87.60347777547008
 20
92.37092451063543
 10
87.60278218926555
 20
92.35914424864197
 10
87.60206454934246
 20
92.34756187406927
 10
87.6013248557008
 20
92.33618334738165
 10
87.60056251229412
 20
92.32499436346436
 10
87.59977155865795
 20
92.31391505209356
  0
LWPOLYLINE
  5
78A
330
1F
100
AcDbEntity
  8
Sichtbare_Kanten_TC_020513_DIN_
  6
Continuous
 62
     7
100
AcDbPolyline
 90
       25
 70
     0
 43
0.0
 10
86.48921781720287
 20
61.47762254683065
 10
86.40185946168071
 20
61.48089484182884
 10
86.30981916131145
 20
61.49105862585606
 10
86.21377760113842
 20
61.50862769095005
 10
86.11441546620495
 20
61.53411821333475
 10
86.01241403760082
 20
61.56804875341965
 10
85.90845280827648
 20
61.61093191114975
 10
85.80321723164684
 20
61.66328982321343
 10
85.69756740273601
 20
61.72551945654473
 10
85.59246355237133
 20
61.79741219488705
 10
85.48883312882549
 20
61.87862590757933
 10
85.38760417641765
 20
61.96881607977485
 10
85.28970354737407
 20
62.06763819662663
 10
85.1960592860139
 20
62.17475131956675
 10
85.10734552086956
 20
62.29017213789567
 10
85.0223111504472
 20
62.41665915457355
 10
84.94182282628185
 20
62.55389527289015
 10
84.86735695542461
 20
62.70068959204306
 10
84.80038815678722
 20
62.85585121122946
 10
84.74239343346721
 20
63.01818684546103
 10
84.69454282464153
 20
63.18627194372763
 10
84.65711349190838
 20
63.35821107832547
 10
84.63022643269665
 20
63.53205040899863
 10
84.61400443257457
 20
63.70583847967745
 10
84.6085702771104
 20
63.87762264219876
  0
LWPOLYLINE
  5
78B
330
1F
100
AcDbEntity
  8
Sichtbare_Kanten_TC_020513_DIN_
  6
Continuous
 62
     7
100
AcDbPolyline
 90
       25
 70
     0
 43
0.0
 10
84.6085702771104
 20
92.07762197462674
 10
84.61400443257457
 20
92.24940613714804
 10
84.63022643269665
 20
92.42319420782687
 10
84.65711349190838
 20
92.59703353850006
 10
84.69454282464153
 20
92.76897267309775
 10
84.74239343346721
 20
92.93705777136435
 10
84.80038815678722
 20
93.09939340559595
 10
84.86735695542461
 20
93.25455502478235
 10
84.94182282628185
 20
93.40134934393515
 10
85.0223111504472
 20
93.53858546225175
 10
85.10734552086956
 20
93.66507247892955
 10
85.1960592860139
 20
93.78049329725846
 10
85.28970354737407
 20
93.88760642019847
 10
85.38760417641765
 20
93.98642853705027
 10
85.48883312882549
 20
94.07661870924565
 10
85.59246355237133
 20
94.15783242193785
 10
85.69756740273601
 20
94.22972516028005
 10
85.80321723164684
 20
94.29195479361135
 10
85.90845280827648
 20
94.34431270567495
 10
86.01241403760082
 20
94.38719586340497
 10
86.11441546620495
 20
94.42112640348975
 10
86.21377760113842
 20
94.44661692587434
 10
86.30981916131145
 20
94.46418599096833
 10
86.40185946168071
 20
94.47434977499535
 10
86.48921781720287
 20
94.47762206999354
  0
LWPOLYLINE
  5
78C
330
1F
100
AcDbEntity
  8
Sichtbare_Kanten_TC_020513_DIN_
  6
Continuous
 62
     7
100
AcDbPolyline
 90
       25
 70
     0
 43
0.0
 10
87.3094957465089
 20
69.40947369543866
 10
87.32107037247783
 20
69.39745084254096
 10
87.33150893391735
 20
69.38413158861934
 10
87.34079176129467
 20
69.36950878111665
 10
87.34890216530925
 20
69.35357586352174
 10
87.35582107247478
 20
69.33632508723085
 10
87.36153119744426
 20
69.31775049177944
 10
87.36601346673137
 20
69.29784552065664
 10
87.36926191987163
 20
69.27659229246913
 10
87.3713272208131
 20
69.25403193442165
 10
87.37228029908306
 20
69.23025802580653
 10
87.3721908921159
 20
69.20536593405535
 10
87.37112933339245
 20
69.17944983450704
 10
87.36916655243999
 20
69.15260449854665
 10
87.36637228669292
 20
69.12492410151296
 10
87.36281627358562
 20
69.09650281874465
 10
87.35857003869182
 20
69.06743601767346
 10
87.35368543805248
 20
69.03767184225845
 10
87.34816902817852
 20
69.00685385672375
 10
87.34206551255352
 20
68.97497908083716
 10
87.33541959466106
 20
68.94206897227096
 10
87.32827776612407
 20
68.90814439265054
 10
87.32068651856548
 20
68.87322679964825
 10
87.31269174756176
 20
68.83733765093606
 10
87.30433934868938
 20
68.80049780813974
  0
LWPOLYLINE
  5
78D
330
1F
100
AcDbEntity
  8
Sichtbare_Kanten_TC_020513_DIN_
  6
Continuous
 62
     7
100
AcDbPolyline
 90
       25
 70
     0
 43
0.0
 10
86.19699233712322
 20
68.99749056307607
 10
86.20383375825054
 20
69.02092174498375
 10
86.21006721200115
 20
69.04408291785055
 10
86.21562236489422
 20
69.06688944308095
 10
86.2204300755418
 20
69.08925847021877
 10
86.22442001046306
 20
69.11110595671474
 10
86.22752302827007
 20
69.13234786001973
 10
86.22965985478527
 20
69.15290073363124
 10
86.2307774418748
 20
69.17271093336885
 10
86.23087459744579
 20
69.19175104109584
 10
86.22995072545177
 20
69.20999185053645
 10
86.2280064219392
 20
69.22740653960054
 10
86.22504049481518
 20
69.24396709410493
 10
86.22105354012615
 20
69.25964490382026
 10
86.21604496182567
 20
69.27441314665626
 10
86.2099867457307
 20
69.28827539889167
 10
86.20250338257915
 20
69.30165187327216
 10
86.1935459965623
 20
69.31462065188234
 10
86.18320518674022
 20
69.32710782496284
 10
86.17156976403362
 20
69.33903769461463
 10
86.15872794331676
 20
69.35033635107825
 10
86.14477032364971
 20
69.36092869250135
 10
86.12978571595318
 20
69.37074021307785
 10
86.11386293114788
 20
69.37969581095535
 10
86.09709197224743
 20
69.38772098032786
  0
LWPOLYLINE
  5
78E
330
1F
100
AcDbEntity
  8
Sichtbare_Kanten_TC_020513_DIN_
  6
Continuous
 62
     7
100
AcDbPolyline
 90
       25
 70
     0
 43
0.0
 10
86.09709197224743
 20
86.56752363650153
 10
86.11386293114788
 20
86.57554880587415
 10
86.12978571595318
 20
86.58450440375165
 10
86.14477032364971
 20
86.59431592432807
 10
86.15872794331676
 20
86.60490826575116
 10
86.17156976403362
 20
86.61620692221476
 10
86.18320518674022
 20
86.62813679186655
 10
86.1935459965623
 20
86.64062396494697
 10
86.20250338257915
 20
86.65359274355714
 10
86.2099867457307
 20
86.66696921793763
 10
86.21604496182567
 20
86.68083147017305
 10
86.22105354012615
 20
86.69559971300905
 10
86.22504049481518
 20
86.71127752272437
 10
86.2280064219392
 20
86.72783807722865
 10
86.22995072545177
 20
86.74525276629274
 10
86.23087459744579
 20
86.76349357573335
 10
86.2307774418748
 20
86.78253368346034
 10
86.22965985478527
 20
86.80234388319795
 10
86.22752302827007
 20
86.82289675680934
 10
86.22442001046306
 20
86.84413866011434
 10
86.2204300755418
 20
86.86598614661037
 10
86.21562236489422
 20
86.88835517374807
 10
86.21006721200115
 20
86.91116169897853
 10
86.20383375825054
 20
86.93432287184535
 10
86.19699233712322
 20
86.95775405375295
  0
LWPOLYLINE
  5
78F
330
1F
100
AcDbEntity
  8
Sichtbare_Kanten_TC_020513_DIN_
  6
Continuous
 62
     7
100
AcDbPolyline
 90
       25
 70
     0
 43
0.0
 10
87.30433934868938
 20
87.15474680868905
 10
87.31269174756176
 20
87.11790696589267
 10
87.32068651856548
 20
87.08201781718057
 10
87.32827776612407
 20
87.04710022417825
 10
87.33541959466106
 20
87.01317564455783
 10
87.34206551255352
 20
86.98026553599166
 10
87.34816902817852
 20
86.94839076010507
 10
87.35368543805248
 20
86.91757277457046
 10
87.35857003869182
 20
86.88780859915545
 10
87.36281627358562
 20
86.85874179808425
 10
87.36637228669292
 20
86.83032051531606
 10
87.36916655243999
 20
86.80264011828237
 10
87.37112933339245
 20
86.77579478232195
 10
87.3721908921159
 20
86.74987868277364
 10
87.37228029908306
 20
86.72498659102254
 10
87.3713272208131
 20
86.70121268240746
 10
87.36926191987163
 20
86.67865232435994
 10
87.36601346673137
 20
86.65739909617244
 10
87.36153119744426
 20
86.63749412504976
 10
87.35582107247478
 20
86.61891952959834
 10
87.34890216530925
 20
86.60166875330756
 10
87.34079176129467
 20
86.58573583571254
 10
87.33150893391735
 20
86.57111302820985
 10
87.32107037247783
 20
86.55779377428834
 10
87.3094957465089
 20
86.54577092139075
  0
LWPOLYLINE
  5
790
330
1F
100
AcDbEntity
  8
Sichtbare_Kanten_TC_020513_DIN_
  6
Continuous
 62
     7
100
AcDbPolyline
 90
       25
 70
     0
 43
0.0
 10
90.17132097424621
 20
163.8057694028514
 10
90.15873485745556
 20
163.8220557759894
 10
90.14638596715099
 20
163.8384863923683
 10
90.13427430333252
 20
163.8550564836164
 10
90.12240463437206
 20
163.8717588971754
 10
90.11077696026928
 20
163.8885900567664
 10
90.09939485730297
 20
163.9055428098334
 10
90.08825951756592
 20
163.9226135800973
 10
90.07737570942993
 20
163.9397952150004
 10
90.0667434328949
 20
163.9570829461714
 10
90.0563662642395
 20
163.9744720052374
 10
90.04624539555675
 20
163.9919564317364
 10
90.036384403125
 20
164.0095302652014
 10
90.02678567113048
 20
164.0271887372624
 10
90.01745039166576
 20
164.0449258874554
 10
90.00838214100952
 20
164.0627369474074
 10
89.99958211125488
 20
164.0806147645604
 10
89.99105268658764
 20
164.0985569547314
 10
89.98279744328624
 20
164.1165551732674
 10
89.9748175734436
 20
164.1346058438914
 10
89.96706062497265
 20
164.1528400968214
 10
89.95949321927196
 20
164.1713401864664
 10
89.95212489308472
 20
164.1900763105054
 10
89.94496637524719
 20
164.2090234349864
 10
89.93802720250255
 20
164.2281541417734
  0
LWPOLYLINE
  5
791
330
1F
100
AcDbEntity
  8
Sichtbare_Kanten_TC_020513_DIN_
  6
Continuous
 62
     7
100
AcDbPolyline
 90
       25
 70
     0
 43
0.0
 10
89.93790918530578
 20
164.2281362603804
 10
89.92397838772888
 20
164.2674157212874
 10
89.9102538222229
 20
164.3064770291944
 10
89.89675456227428
 20
164.3452641557354
 10
89.88349968136902
 20
164.3837115358014
 10
89.87051063717968
 20
164.4217571805614
 10
89.85779935063488
 20
164.4593498300214
 10
89.84537535847778
 20
164.4964382241864
 10
89.83324938954479
 20
164.5329687188764
 10
89.82143098057861
 20
164.5688924382824
 10
89.80993205250866
 20
164.6041557382244
 10
89.79876094998485
 20
164.6387085508004
 10
89.78792840184337
 20
164.6724996160164
 10
89.77744513692028
 20
164.7054764817854
 10
89.76732188405151
 20
164.7375890802044
 10
89.75756937207348
 20
164.7687849591864
 10
89.74819594563598
 20
164.7990140508314
 10
89.73921352566845
 20
164.8282227109564
 10
89.73054820241089
 20
164.8566290925634
 10
89.72211414517528
 20
164.8844883035324
 10
89.71393996419079
 20
164.9116906713144
 10
89.7060518855011
 20
164.9381289075514
 10
89.69847732724315
 20
164.9636909555094
 10
89.6912437075531
 20
164.9882695268294
 10
89.68437844456798
 20
165.0117537568704
  0
LWPOLYLINE
  5
792
330
1F
100
AcDbEntity
  8
Sichtbare_Kanten_TC_020513_DIN_
  6
Continuous
 62
     7
100
AcDbPolyline
 90
       25
 70
     0
 43
0.0
 10
89.68437844456798
 20
165.0117537568704
 10
89.67498594464428
 20
165.0441441129344
 10
89.66511422337658
 20
165.0785121511114
 10
89.65484911145336
 20
165.1145896505014
 10
89.64428240002758
 20
165.1521107743874
 10
89.63350230397339
 20
165.1908073018684
 10
89.62249571026928
 20
165.2307853292124
 10
89.61108142079479
 20
165.2727624963424
 10
89.59929996670849
 20
165.3166446279184
 10
89.58720141591198
 20
165.3623005937234
 10
89.57483702839977
 20
165.4095968793524
 10
89.56225687207348
 20
165.4584035466804
 10
89.54951339902038
 20
165.5085846971173
 10
89.53665548504955
 20
165.5600092004434
 10
89.52373439015514
 20
165.6125447343484
 10
89.51080256642467
 20
165.6660589765203
 10
89.49791246594555
 20
165.7204017232554
 10
89.48510581196899
 20
165.7753965448044
 10
89.47242313565368
 20
165.8308634351394
 10
89.45990496815807
 20
165.8866235803263
 10
89.44758826436168
 20
165.9424969743384
 10
89.43551593960888
 20
165.9983048032424
 10
89.42372614087219
 20
166.0538658689154
 10
89.4122593993103
 20
166.1090025495184
 10
89.40115386189586
 20
166.1635348390234
  0
LWPOLYLINE
  5
793
330
1F
100
AcDbEntity
  8
Sichtbare_Kanten_TC_020513_DIN_
  6
Continuous
 62
     7
100
AcDbPolyline
 90
       25
 70
     0
 43
0.0
 10
87.59977155865795
 20
166.2544009278914
 10
87.59736949147339
 20
166.2189647744794
 10
87.59509617032177
 20
166.1838743280073
 10
87.59295278729553
 20
166.1491903852124
 10
87.59094172658081
 20
166.1149725507394
 10
87.58906000794536
 20
166.0812673162114
 10
87.58730405511028
 20
166.0481164048804
 10
87.58566969575054
 20
166.0155651162764
 10
87.58415275754089
 20
165.9836575578344
 10
87.58275026024944
 20
165.9524354528084
 10
87.58145862759716
 20
165.9219429086344
 10
87.58027368725891
 20
165.8922252248424
 10
87.57919126690979
 20
165.8633241246834
 10
87.57820898236389
 20
165.8352849076884
 10
87.57732146920318
 20
165.8081504892004
 10
87.57652634324188
 20
165.7819649766583
 10
87.5758164519226
 20
165.7566878389014
 10
87.57517629803772
 20
165.7319590638774
 10
87.57460051716919
 20
165.7077810357704
 10
87.57408612908489
 20
165.6842145513194
 10
87.57363134564525
 20
165.6613192151684
 10
87.57323199452526
 20
165.6391570161474
 10
87.572885691539
 20
165.6177875589033
 10
87.57258945645458
 20
165.5972728322644
 10
87.5723403090393
 20
165.5776724408764
  0
LWPOLYLINE
  5
794
330
1F
100
AcDbEntity
  8
Sichtbare_Kanten_TC_020513_DIN_
  6
Continuous
 62
     7
100
AcDbPolyline
 90
       25
 70
     0
 43
0.0
 10
87.5723403090393
 20
165.5776724408764
 10
87.57203274907238
 20
165.5485460351604
 10
87.57178479375
 20
165.5174824784894
 10
87.5716101521408
 20
165.4846760820043
 10
87.57152312935955
 20
165.4503223489424
 10
87.57153683842785
 20
165.4146120141643
 10
87.57166677655346
 20
165.3777024339334
 10
87.57193320931549
 20
165.3389653752944
 10
87.57235282601471
 20
165.2982256005903
 10
87.57294112385875
 20
165.2556178163184
 10
87.57371360005493
 20
165.2112791131634
 10
87.57468396367199
 20
165.1653430055274
 10
87.57586830796367
 20
165.1179441999094
 10
87.57728093804485
 20
165.0692197869914
 10
87.57893735112316
 20
165.0193044732704
 10
87.58085244835968
 20
164.9683317731514
 10
87.58304232300884
 20
164.9164554666174
 10
87.5855045908844
 20
164.8638615201614
 10
87.58822852315075
 20
164.8107430528303
 10
87.59120279492504
 20
164.7572943757673
 10
87.59441786946411
 20
164.7037062238354
 10
87.59786242188568
 20
164.6501741002693
 10
87.60152572335369
 20
164.5968887399334
 10
87.60539823712475
 20
164.5440444539684
 10
87.6094680422699
 20
164.4918331693304
  0
LWPOLYLINE
  5
795
330
1F
100
AcDbEntity
  8
Sichtbare_Kanten_TC_020513_DIN_
  6
Continuous
 62
     7
100
AcDbPolyline
 90
       25
 70
     0
 43
0.0
 10
87.61774116696472
 20
166.6413971971173
 10
87.61735194863445
 20
166.6255709718363
 10
87.61692935170288
 20
166.6096732209814
 10
87.6164739722168
 20
166.5937134812963
 10
87.61598581017608
 20
166.5776965211524
 10
87.61546605767376
 20
166.5616271089214
 10
87.61491352261669
 20
166.5455123971594
 10
87.61432999314434
 20
166.5293571542404
 10
87.6137142771637
 20
166.5131685327194
 10
87.61306756676788
 20
166.4969536851544
 10
87.61238926591045
 20
166.4807149957314
 10
87.61168056668407
 20
166.4644620011944
 10
87.61094146908886
 20
166.4481970857284
 10
87.61017137707836
 20
166.4319274018904
 10
87.60937148274547
 20
166.4156624864234
 10
87.60854178609009
 20
166.3994023393294
 10
87.60768288315899
 20
166.3831588815344
 10
87.60679417790539
 20
166.3669321130414
 10
87.60587626637573
 20
166.3507339547774
 10
87.6049297446167
 20
166.3345644067423
 10
87.60395461262829
 20
166.3184330056803
 10
87.60295087041027
 20
166.3023445199623
 10
87.60191851796276
 20
166.2863061021464
 10
87.60085874737865
 20
166.2703225206034
 10
87.59977155865795
 20
166.2544009278914
  0
LWPOLYLINE
  5
796
330
1F
100
AcDbEntity
  8
Sichtbare_Kanten_TC_020513_DIN_
  6
Continuous
 62
     7
100
AcDbPolyline
 90
       25
 70
     0
 43
0.0
 10
86.48921781720287
 20
171.0783574174544
 10
86.4018594616806
 20
171.2265512536664
 10
86.30981916131145
 20
171.3754555772444
 10
86.2137776011383
 20
171.5240284989974
 10
86.11441546620495
 20
171.6712376664773
 10
86.0124140376007
 20
171.8160411904943
 10
85.90845280827648
 20
171.9574067186014
 10
85.80321723164684
 20
172.0942947457924
 10
85.6975674027359
 20
172.2258612702984
 10
85.59246355237121
 20
172.3515793870584
 10
85.48883312882549
 20
172.4709603379864
 10
85.38760417641765
 20
172.5835129808084
 10
85.28970354737407
 20
172.6887437890663
 10
85.19605928601379
 20
172.7861616204874
 10
85.10734552086956
 20
172.8755352090494
 10
85.02231115044708
 20
172.9586717675824
 10
84.94182282628185
 20
173.0352875779764
 10
84.8673569554245
 20
173.1044814180033
 10
84.80038815678722
 20
173.1653544496194
 10
84.7423934334671
 20
173.2170054505963
 10
84.69454282464153
 20
173.2589742730754
 10
84.65711349190838
 20
173.2913801263464
 10
84.63022643269665
 20
173.3143565248144
 10
84.61400443257457
 20
173.3280417512554
 10
84.60857027711029
 20
173.3325717042584
  0
LWPOLYLINE
  5
797
330
1F
100
AcDbEntity
  8
Sichtbare_Kanten_TC_020513_DIN_
  6
Continuous
 62
     7
100
AcDbPolyline
 90
       25
 70
     0
 43
0.0
 10
87.30949574650879
 20
179.7725102494854
 10
87.32107037247772
 20
179.7250029634134
 10
87.33150893391735
 20
179.6770069192544
 10
87.34079176129467
 20
179.6286818574563
 10
87.34890216530925
 20
179.5801899026533
 10
87.35582107247478
 20
179.5316884111064
 10
87.36153119744426
 20
179.4833395074504
 10
87.36601346673137
 20
179.4353029321334
 10
87.36926191987152
 20
179.3877408097883
 10
87.37132722081299
 20
179.3407818864484
 10
87.37228029908306
 20
179.2945477555884
 10
87.37219089211578
 20
179.2491576264994
 10
87.37112933339245
 20
179.2047283242834
 10
87.36916655243988
 20
179.1613790582314
 10
87.36637228669281
 20
179.1192290376324
 10
87.36281627358551
 20
179.0783950875894
 10
87.35857003869171
 20
179.0389964173934
 10
87.35368543805248
 20
179.0009281228674
 10
87.3481690281784
 20
178.9636203836104
 10
87.3420655125534
 20
178.9270731996194
 10
87.33541959466106
 20
178.8913151811254
 10
87.32827776612407
 20
178.8563844751014
 10
87.32068651856548
 20
178.8223120759624
 10
87.31269174756176
 20
178.7891313623084
 10
87.30433934868938
 20
178.7568757127423
  0
LWPOLYLINE
  5
798
330
1F
100
AcDbEntity
  8
Sichtbare_Kanten_TC_020513_DIN_
  6
Continuous
 62
     7
100
AcDbPolyline
 90
       25
 70
     0
 43
0.0
 10
86.1969923371231
 20
179.2606446336404
 10
86.20383375825054
 20
179.2877170632974
 10
86.21006721200115
 20
179.3157145570414
 10
86.2156223648941
 20
179.3445584367414
 10
86.22043007554169
 20
179.3741676400794
 10
86.22442001046306
 20
179.4044634889264
 10
86.22752302827007
 20
179.4353601525924
 10
86.22965985478527
 20
179.4667837213174
 10
86.2307774418747
 20
179.4986388276714
 10
86.23087459744579
 20
179.5308014939923
 10
86.22995072545177
 20
179.5631548951764
 10
86.22800642193909
 20
179.5955774377484
 10
86.22504049481518
 20
179.6279499124184
 10
86.22105354012615
 20
179.6601483415264
 10
86.21604496182567
 20
179.6920558999673
 10
86.20998674573059
 20
179.7236392091414
 10
86.20250338257915
 20
179.7559735368384
 10
86.1935459965622
 20
179.7891685556074
 10
86.18320518674011
 20
179.8229119371073
 10
86.1715697640335
 20
179.8568937371863
 10
86.15872794331676
 20
179.8908016275064
 10
86.1447703236496
 20
179.9243256639134
 10
86.12978571595318
 20
179.9571511338843
 10
86.11386293114788
 20
179.9889680932654
 10
86.09709197224731
 20
180.0194642137184
  0
MTEXT
  5
79A
330
1F
100
AcDbEntity
  8
Symbole_TC_020513_DIN_
 62
     7
100
AcDbMText
 10
31.99312669646145
 20
279.36317886101
 30
0.0
 40
3.49999994039535
 41
0.0
 71
     1
 72
     1
  1
Panel\Pcut\Pout
  7
CONVERTER_14
 73
     1
 44
0.75727272727273
  0
DIMENSION
  5
7A6
330
1F
100
AcDbEntity
  8
1
100
AcDbDimension
  2
*D3
 10
123.8130913371003
 20
144.1616108010904
 30
0.0
 11
120.3130913371003
 21
166.662586122874
 31
0.0
 70
    32
  1
<>
 71
     5
 42
-1.0
 53
90.0
  3
ME10_DIM_10
100
AcDbAlignedDimension
 13
98.81309133710033
 23
189.1635614446576
 33
0.0
 14
86.81309133710033
 24
144.1616108010904
 34
0.0
 50
90.0
100
AcDbRotatedDimension
  0
DIMENSION
  5
7B1
330
1F
100
AcDbEntity
  8
1
100
AcDbDimension
  2
*D4
 10
36.81309133710033
 20
92.97762230840874
 30
0.0
 11
33.31309133710033
 21
77.97762230840874
 31
0.0
 70
    32
  1
<>
 71
     5
 42
-1.0
 53
90.0
  3
ME10_DIM_11
100
AcDbAlignedDimension
 13
67.9980913370315
 23
62.97762230840874
 33
0.0
 14
67.9980913370315
 24
92.97762230840874
 34
0.0
 50
90.0
100
AcDbRotatedDimension
  0
DIMENSION
  5
7BC
330
1F
100
AcDbEntity
  8
1
100
AcDbDimension
  2
*D5
 10
141.5015601760936
 20
129.1616108010904
 30
0.0
 11
162.5015601760936
 21
132.6616108010904
 31
0.0
 70
    32
  1
<>
 71
     5
 42
-1.0
 53
0.00013888888889
  3
ME10_DIM_12
100
AcDbAlignedDimension
 13
183.5015601760936
 23
144.1616108010904
 33
0.0
 14
141.5015601760936
 24
144.1616108010904
 34
0.0
100
AcDbRotatedDimension
  0
DIMENSION
  5
7C7
330
1F
100
AcDbEntity
  8
1
100
AcDbDimension
  2
*D6
 10
37.49825347949758
 20
218.826613746545
 30
0.0
 11
48.49825347949758
 21
222.326613746545
 31
0.0
 70
    32
  1
<>
 71
     5
 42
-1.0
 53
0.00013888888889
  3
ME10_DIM_13
100
AcDbAlignedDimension
 13
59.49825347949758
 23
237.826613746545
 33
0.0
 14
37.49825347949758
 24
237.826613746545
 34
0.0
100
AcDbRotatedDimension
  0
DIMENSION
  5
7D2
330
1F
100
AcDbEntity
  8
1
100
AcDbDimension
  2
*D7
 10
74.49825347949758
 20
237.826613746545
 30
0.0
 11
70.99825347949758
 21
248.826613746545
 31
0.0
 70
    32
  1
<>
 71
     5
 42
-1.0
 53
90.0
  3
ME10_DIM_14
100
AcDbAlignedDimension
 13
59.49825347949758
 23
259.8266137465449
 33
0.0
 14
59.49825347949758
 24
237.826613746545
 34
0.0
 50
90.0
100
AcDbRotatedDimension
  0
DIMENSION
  5
7DD
330
1F
100
AcDbEntity
  8
1
100
AcDbDimension
  2
*D8
 10
84.49825347949758
 20
263.826613746545
 30
0.0
 11
80.99825347949758
 21
248.826613746545
 31
0.0
 70
    32
  1
<>
 71
     5
 42
-1.0
 53
90.0
  3
ME10_DIM_15
100
AcDbAlignedDimension
 13
52.31325347949763
 23
233.826613746545
 33
0.0
 14
52.31325347949763
 24
263.826613746545
 34
0.0
 50
90.0
100
AcDbRotatedDimension
  0
DIMENSION
  5
7E8
330
1F
100
AcDbEntity
  8
1
100
AcDbDimension
  2
*D9
 10
46.81309133710033
 20
129.1616108010904
 30
0.0
 11
51.81309133710033
 21
132.6616108010904
 31
0.0
 70
    32
  1
<>
 71
     5
 42
-1.0
 53
0.00013888888889
  3
ME10_DIM_16
100
AcDbAlignedDimension
 13
56.81309133710033
 23
144.1616108010904
 33
0.0
 14
46.81309133710033
 24
148.6616108010904
 34
0.0
100
AcDbRotatedDimension
  0
DIMENSION
  5
7F3
330
1F
100
AcDbEntity
  8
1
100
AcDbDimension
  2
*D10
 10
56.81309133710033
 20
129.1616108010904
 30
0.0
 11
80.31309133710033
 21
132.6616108010904
 31
0.0
 70
    32
  1
<>
 71
     5
 42
-1.0
 53
0.00013888888889
  3
ME10_DIM_17
100
AcDbAlignedDimension
 13
103.8130913371003
 23
148.6616108010904
 33
0.0
 14
56.81309133710033
 24
144.1616108010904
 34
0.0
100
AcDbRotatedDimension
  0
INSERT
  5
7FC
330
1F
100
AcDbEntity
  8
1
100
AcDbBlockReference
  2
*D11
 10
0.0
 20
0.0
 30
0.0
  0
INSERT
  5
805
330
1F
100
AcDbEntity
  8
1
100
AcDbBlockReference
  2
*D12
 10
0.0
 20
0.0
 30
0.0
  0
INSERT
  5
80F
330
1F
100
AcDbEntity
  8
1
100
AcDbBlockReference
  2
*D13
 10
0.0
 20
0.0
 30
0.0
  0
ENDSEC
  0
SECTION
  2
OBJECTS
  0
DICTIONARY
  5
C
330
0
100
AcDbDictionary
281
     1
  3
ACAD_GROUP
350
D
  3
ACAD_LAYOUT
350
1A
  3
ACAD_MATERIAL
350
3B
  3
ACAD_MLEADERSTYLE
350
812
  3
ACAD_MLINESTYLE
350
17
  3
ACAD_PLOTSETTINGS
350
19
  3
ACAD_PLOTSTYLENAME
350
E
  3
ACAD_VISUALSTYLE
350
2A
  3
AcDbVariableDictionary
350
810
  0
DICTIONARY
  5
D
102
{ACAD_REACTORS
330
C
102
}
330
C
100
AcDbDictionary
281
     1
  0
DICTIONARY
  5
1A
102
{ACAD_REACTORS
330
C
102
}
330
C
100
AcDbDictionary
281
     1
  3
Layout1
350
1E
  3
Layout2
350
26
  3
Model
350
22
  0
DICTIONARY
  5
3B
102
{ACAD_REACTORS
330
C
102
}
330
C
100
AcDbDictionary
281
     1
  3
ByBlock
350
3D
  3
ByLayer
350
3C
  3
Global
350
3E
  0
DICTIONARY
  5
812
102
{ACAD_REACTORS
330
C
102
}
330
C
100
AcDbDictionary
281
     1
  0
DICTIONARY
  5
17
102
{ACAD_REACTORS
330
C
102
}
330
C
100
AcDbDictionary
281
     1
  3
Standard
350
18
  0
DICTIONARY
  5
19
102
{ACAD_REACTORS
330
C
102
}
330
C
100
AcDbDictionary
281
     1
  0
ACDBDICTIONARYWDFLT
  5
E
102
{ACAD_REACTORS
330
C
102
}
330
C
100
AcDbDictionary
281
     1
  3
Normal
350
F
100
AcDbDictionaryWithDefault
340
F
  0
DICTIONARY
  5
2A
102
{ACAD_REACTORS
330
C
102
}
330
C
100
AcDbDictionary
281
     1
  3
2dWireframe
350
2F
  3
3D Hidden
350
31
  3
3dWireframe
350
30
  3
Basic
350
32
  3
Brighten
350
36
  3
ColorChange
350
3A
  3
Conceptual
350
34
  3
Dim
350
35
  3
Facepattern
350
39
  3
Flat
350
2B
  3
FlatWithEdges
350
2C
  3
Gouraud
350
2D
  3
GouraudWithEdges
350
2E
  3
Linepattern
350
38
  3
Realistic
350
33
  3
Thicken
350
37
  0
DICTIONARY
  5
810
102
{ACAD_REACTORS
330
C
102
}
330
C
100
AcDbDictionary
281
     1
  3
DIMASSOC
350
813
  3
HIDETEXT
350
814
  0
LAYOUT
  5
1E
102
{ACAD_REACTORS
330
1A
102
}
330
1A
100
AcDbPlotSettings
  1

  2
none_device
  4

  6

 40
0.0
 41
0.0
 42
0.0
 43
0.0
 44
0.0
 45
0.0
 46
0.0
 47
0.0
 48
0.0
 49
0.0
140
0.0
141
0.0
142
1.0
143
1.0
 70
   688
 72
     0
 73
     0
 74
     5
  7

 75
    16
147
1.0
148
0.0
149
0.0
100
AcDbLayout
  1
Layout1
 70
     1
 71
     1
 10
0.0
 20
0.0
 11
12.0
 21
9.0
 12
0.0
 22
0.0
 32
0.0
 14
1.00000000000000E+20
 24
1.00000000000000E+20
 34
1.00000000000000E+20
 15
-1.00000000000000E+20
 25
-1.00000000000000E+20
 35
-1.00000000000000E+20
146
0.0
 13
0.0
 23
0.0
 33
0.0
 16
1.0
 26
0.0
 36
0.0
 17
0.0
 27
1.0
 37
0.0
 76
     0
330
1B
  0
LAYOUT
  5
26
102
{ACAD_REACTORS
330
1A
102
}
330
1A
100
AcDbPlotSettings
  1

  2
none_device
  4

  6

 40
0.0
 41
0.0
 42
0.0
 43
0.0
 44
0.0
 45
0.0
 46
0.0
 47
0.0
 48
0.0
 49
0.0
140
0.0
141
0.0
142
1.0
143
1.0
 70
   688
 72
     0
 73
     0
 74
     5
  7

 75
    16
147
1.0
148
0.0
149
0.0
100
AcDbLayout
  1
Layout2
 70
     1
 71
     2
 10
0.0
 20
0.0
 11
0.0
 21
0.0
 12
0.0
 22
0.0
 32
0.0
 14
0.0
 24
0.0
 34
0.0
 15
0.0
 25
0.0
 35
0.0
146
0.0
 13
0.0
 23
0.0
 33
0.0
 16
1.0
 26
0.0
 36
0.0
 17
0.0
 27
1.0
 37
0.0
 76
     0
330
23
  0
LAYOUT
  5
22
102
{ACAD_REACTORS
330
1A
102
}
330
1A
100
AcDbPlotSettings
  1

  2
none_device
  4

  6

 40
0.0
 41
0.0
 42
0.0
 43
0.0
 44
0.0
 45
0.0
 46
0.0
 47
0.0
 48
0.0
 49
0.0
140
0.0
141
0.0
142
1.0
143
1.0
 70
  1712
 72
     0
 73
     0
 74
     0
  7

 75
     0
147
1.0
148
0.0
149
0.0
100
AcDbLayout
  1
Model
 70
     1
 71
     0
 10
0.0
 20
0.0
 11
12.0
 21
9.0
 12
0.0
 22
0.0
 32
0.0
 14
0.0
 24
0.0
 34
0.0
 15
210.0000000000001
 25
297.0000000000001
 35
0.0
146
0.0
 13
0.0
 23
0.0
 33
0.0
 16
1.0
 26
0.0
 36
0.0
 17
0.0
 27
1.0
 37
0.0
 76
     0
330
1F
331
29
  0
MATERIAL
  5
3D
102
{ACAD_REACTORS
330
3B
102
}
102
{ACAD_XDICTIONARY
360
837
102
}
330
3B
100
AcDbMaterial
  1
ByBlock
  0
MATERIAL
  5
3C
102
{ACAD_REACTORS
330
3B
102
}
102
{ACAD_XDICTIONARY
360
835
102
}
330
3B
100
AcDbMaterial
  1
ByLayer
  0
MATERIAL
  5
3E
102
{ACAD_REACTORS
330
3B
102
}
102
{ACAD_XDICTIONARY
360
839
102
}
330
3B
100
AcDbMaterial
  1
Global
  0
MLINESTYLE
  5
18
102
{ACAD_REACTORS
330
17
102
}
330
17
100
AcDbMlineStyle
  2
Standard
 70
     0
  3

 62
   256
 51
90.0
 52
90.0
 71
     2
 49
0.5
 62
   256
  6
BYLAYER
 49
-0.5
 62
   256
  6
BYLAYER
  0
ACDBPLACEHOLDER
  5
F
102
{ACAD_REACTORS
330
E
102
}
330
E
  0
VISUALSTYLE
  5
2F
102
{ACAD_REACTORS
330
2A
102
}
102
{ACAD_XDICTIONARY
360
81D
102
}
330
2A
100
AcDbVisualStyle
  2
2dWireframe
 70
     4
 71
     0
 72
     2
 73
     0
 90
        0
 40
-0.6
 41
-30.0
 62
     5
 63
     7
 74
     1
 91
        4
 64
     7
 65
   257
 75
     1
175
     1
 42
1.0
 92
        0
 66
   257
 43
1.0
 76
     1
 77
     6
 78
     2
 67
     7
 79
     5
170
     0
171
     0
290
     0
174
     0
 93
        1
 44
0.0
173
     0
291
     0
 45
0.0
1001
ACAD
1000
AcDbSavedByObjectVersion
1070
     0
  0
VISUALSTYLE
  5
31
102
{ACAD_REACTORS
330
2A
102
}
102
{ACAD_XDICTIONARY
360
821
102
}
330
2A
100
AcDbVisualStyle
  2
3D Hidden
 70
     6
 71
     1
 72
     2
 73
     2
 90
        0
 40
-0.6
 41
-30.0
 62
     5
 63
     7
 74
     2
 91
        2
 64
     7
 65
   257
 75
     2
175
     1
 42
40.0
 92
        0
 66
   257
 43
1.0
 76
     1
 77
     6
 78
     2
 67
     7
 79
     3
170
     0
171
     0
290
     0
174
     0
 93
        1
 44
0.0
173
     0
291
     0
 45
0.0
1001
ACAD
1000
AcDbSavedByObjectVersion
1070
     0
  0
VISUALSTYLE
  5
30
102
{ACAD_REACTORS
330
2A
102
}
102
{ACAD_XDICTIONARY
360
81F
102
}
330
2A
100
AcDbVisualStyle
  2
3dWireframe
 70
     5
 71
     0
 72
     2
 73
     0
 90
        0
 40
-0.6
 41
-30.0
 62
     5
 63
     7
 74
     1
 91
        4
 64
     7
 65
   257
 75
     1
175
     1
 42
1.0
 92
        0
 66
   257
 43
1.0
 76
     1
 77
     6
 78
     2
 67
     7
 79
     5
170
     0
171
     0
290
     0
174
     0
 93
        1
 44
0.0
173
     0
291
     0
 45
0.0
1001
ACAD
1000
AcDbSavedByObjectVersion
1070
     0
  0
VISUALSTYLE
  5
32
102
{ACAD_REACTORS
330
2A
102
}
102
{ACAD_XDICTIONARY
360
823
102
}
330
2A
100
AcDbVisualStyle
  2
Basic
 70
     7
 71
     1
 72
     0
 73
     1
 90
        0
 40
-0.6
 41
-30.0
 62
     5
 63
     7
 74
     0
 91
        4
 64
     7
 65
   257
 75
     1
175
     1
 42
1.0
 92
        8
 66
     7
 43
1.0
 76
     1
 77
     6
 78
     2
 67
     7
 79
     5
170
     0
171
     0
290
     0
174
     0
 93
        1
 44
0.0
173
     0
291
     1
 45
0.0
1001
ACAD
1000
AcDbSavedByObjectVersion
1070
     0
  0
VISUALSTYLE
  5
36
102
{ACAD_REACTORS
330
2A
102
}
102
{ACAD_XDICTIONARY
360
82B
102
}
330
2A
100
AcDbVisualStyle
  2
Brighten
 70
    12
 71
     2
 72
     2
 73
     0
 90
        0
 40
-0.6
 41
-30.0
 62
     5
 63
     7
 74
     1
 91
        4
 64
     7
 65
   257
 75
     1
175
     1
 42
1.0
 92
        8
 66
     7
 43
1.0
 76
     1
 77
     6
 78
     2
 67
     7
 79
     5
170
     0
171
     0
290
     0
174
     0
 93
        1
 44
50.0
173
     0
291
     1
 45
0.0
1001
ACAD
1000
AcDbSavedByObjectVersion
1070
     0
  0
VISUALSTYLE
  5
3A
102
{ACAD_REACTORS
330
2A
102
}
102
{ACAD_XDICTIONARY
360
833
102
}
330
2A
100
AcDbVisualStyle
  2
ColorChange
 70
    16
 71
     2
 72
     2
 73
     3
 90
        0
 40
-0.6
 41
-30.0
 62
     5
 63
     8
 74
     1
 91
        4
 64
     7
 65
   257
 75
     1
175
     1
 42
1.0
 92
        8
 66
     8
 43
1.0
 76
     1
 77
     6
 78
     2
 67
     7
 79
     5
170
     0
171
     0
290
     0
174
     0
 93
        1
 44
0.0
173
     0
291
     1
 45
0.0
1001
ACAD
1000
AcDbSavedByObjectVersion
1070
     0
  0
VISUALSTYLE
  5
34
102
{ACAD_REACTORS
330
2A
102
}
102
{ACAD_XDICTIONARY
360
827
102
}
330
2A
100
AcDbVisualStyle
  2
Conceptual
 70
     9
 71
     3
 72
     2
 73
     0
 90
        0
 40
-0.6
 41
-30.0
 62
     5
 63
     7
 74
     2
 91
        2
 64
     7
 65
   257
 75
     1
175
     1
 42
40.0
 92
        8
 66
     7
 43
1.0
 76
     1
 77
     6
 78
     2
 67
     7
 79
     3
170
     0
171
     0
290
     0
174
     0
 93
        1
 44
0.0
173
     0
291
     0
 45
0.0
1001
ACAD
1000
AcDbSavedByObjectVersion
1070
     0
  0
VISUALSTYLE
  5
35
102
{ACAD_REACTORS
330
2A
102
}
102
{ACAD_XDICTIONARY
360
829
102
}
330
2A
100
AcDbVisualStyle
  2
Dim
 70
    11
 71
     2
 72
     2
 73
     0
 90
        0
 40
-0.6
 41
-30.0
 62
     5
 63
     7
 74
     1
 91
        4
 64
     7
 65
   257
 75
     1
175
     1
 42
1.0
 92
        8
 66
     7
 43
1.0
 76
     1
 77
     6
 78
     2
 67
     7
 79
     5
170
     0
171
     0
290
     0
174
     0
 93
        1
 44
-50.0
173
     0
291
     1
 45
0.0
1001
ACAD
1000
AcDbSavedByObjectVersion
1070
     0
  0
VISUALSTYLE
  5
39
102
{ACAD_REACTORS
330
2A
102
}
102
{ACAD_XDICTIONARY
360
831
102
}
330
2A
100
AcDbVisualStyle
  2
Facepattern
 70
    15
 71
     2
 72
     2
 73
     0
 90
        0
 40
-0.6
 41
-30.0
 62
     5
 63
     7
 74
     1
 91
        4
 64
     7
 65
   257
 75
     1
175
     1
 42
1.0
 92
        8
 66
     7
 43
1.0
 76
     1
 77
     6
 78
     2
 67
     7
 79
     5
170
     0
171
     0
290
     0
174
     0
 93
        1
 44
0.0
173
     0
291
     1
 45
0.0
1001
ACAD
1000
AcDbSavedByObjectVersion
1070
     0
  0
VISUALSTYLE
  5
2B
102
{ACAD_REACTORS
330
2A
102
}
102
{ACAD_XDICTIONARY
360
815
102
}
330
2A
100
AcDbVisualStyle
  2
Flat
 70
     0
 71
     2
 72
     1
 73
     1
 90
        2
 40
-0.6
 41
30.0
 62
     5
 63
     7
 74
     0
 91
        4
 64
     7
 65
   257
 75
     1
175
     1
 42
1.0
 92
        8
 66
     7
 43
1.0
 76
     1
 77
     6
 78
     2
 67
     7
 79
     5
170
     0
171
     0
290
     0
174
     0
 93
       13
 44
0.0
173
     0
291
     1
 45
0.0
1001
ACAD
1000
AcDbSavedByObjectVersion
1070
     0
  0
VISUALSTYLE
  5
2C
102
{ACAD_REACTORS
330
2A
102
}
102
{ACAD_XDICTIONARY
360
817
102
}
330
2A
100
AcDbVisualStyle
  2
FlatWithEdges
 70
     1
 71
     2
 72
     1
 73
     1
 90
        2
 40
-0.6
 41
30.0
 62
     5
 63
     7
 74
     1
 91
        4
 64
     7
 65
   257
 75
     1
175
     1
 42
1.0
 92
        0
 66
   257
 43
1.0
 76
     1
 77
     6
 78
     2
 67
     7
 79
     5
170
     0
171
     0
290
     0
174
     0
 93
       13
 44
0.0
173
     0
291
     1
 45
0.0
1001
ACAD
1000
AcDbSavedByObjectVersion
1070
     0
  0
VISUALSTYLE
  5
2D
102
{ACAD_REACTORS
330
2A
102
}
102
{ACAD_XDICTIONARY
360
819
102
}
330
2A
100
AcDbVisualStyle
  2
Gouraud
 70
     2
 71
     2
 72
     2
 73
     1
 90
        2
 40
-0.6
 41
30.0
 62
     5
 63
     7
 74
     0
 91
        4
 64
     7
 65
   257
 75
     1
175
     1
 42
1.0
 92
        0
 66
     7
 43
1.0
 76
     1
 77
     6
 78
     2
 67
     7
 79
     5
170
     0
171
     0
290
     0
174
     0
 93
       13
 44
0.0
173
     0
291
     1
 45
0.0
1001
ACAD
1000
AcDbSavedByObjectVersion
1070
     0
  0
VISUALSTYLE
  5
2E
102
{ACAD_REACTORS
330
2A
102
}
102
{ACAD_XDICTIONARY
360
81B
102
}
330
2A
100
AcDbVisualStyle
  2
GouraudWithEdges
 70
     3
 71
     2
 72
     2
 73
     1
 90
        2
 40
-0.6
 41
30.0
 62
     5
 63
     7
 74
     1
 91
        4
 64
     7
 65
   257
 75
     1
175
     1
 42
1.0
 92
        0
 66
   257
 43
1.0
 76
     1
 77
     6
 78
     2
 67
     7
 79
     5
170
     0
171
     0
290
     0
174
     0
 93
       13
 44
0.0
173
     0
291
     1
 45
0.0
1001
ACAD
1000
AcDbSavedByObjectVersion
1070
     0
  0
VISUALSTYLE
  5
38
102
{ACAD_REACTORS
330
2A
102
}
102
{ACAD_XDICTIONARY
360
82F
102
}
330
2A
100
AcDbVisualStyle
  2
Linepattern
 70
    14
 71
     2
 72
     2
 73
     0
 90
        0
 40
-0.6
 41
-30.0
 62
     5
 63
     7
 74
     1
 91
        4
 64
     7
 65
   257
 75
     7
175
     7
 42
1.0
 92
        8
 66
     7
 43
1.0
 76
     1
 77
     6
 78
     2
 67
     7
 79
     5
170
     0
171
     0
290
     0
174
     0
 93
        1
 44
0.0
173
     0
291
     1
 45
0.0
1001
ACAD
1000
AcDbSavedByObjectVersion
1070
     0
  0
VISUALSTYLE
  5
33
102
{ACAD_REACTORS
330
2A
102
}
102
{ACAD_XDICTIONARY
360
825
102
}
330
2A
100
AcDbVisualStyle
  2
Realistic
 70
     8
 71
     2
 72
     2
 73
     0
 90
        0
 40
-0.6
 41
-30.0
 62
     5
 63
     7
 74
     1
 91
        0
 64
     7
 65
   257
 75
     1
175
     1
 42
1.0
 92
        8
 66
     8
 43
1.0
 76
     1
 77
     6
 78
     2
 67
     7
 79
     5
170
     0
171
     0
290
     0
174
     0
 93
       13
 44
0.0
173
     0
291
     0
 45
0.0
1001
ACAD
1000
AcDbSavedByObjectVersion
1070
     0
  0
VISUALSTYLE
  5
37
102
{ACAD_REACTORS
330
2A
102
}
102
{ACAD_XDICTIONARY
360
82D
102
}
330
2A
100
AcDbVisualStyle
  2
Thicken
 70
    13
 71
     2
 72
     2
 73
     0
 90
        0
 40
-0.6
 41
-30.0
 62
     5
 63
     7
 74
     1
 91
        4
 64
     7
 65
   257
 75
     1
175
     1
 42
1.0
 92
       12
 66
     7
 43
1.0
 76
     1
 77
     6
 78
     2
 67
     7
 79
     5
170
     0
171
     0
290
     0
174
     0
 93
        1
 44
0.0
173
     0
291
     1
 45
0.0
1001
ACAD
1000
AcDbSavedByObjectVersion
1070
     0
  0
DICTIONARYVAR
  5
813
102
{ACAD_REACTORS
330
810
102
}
330
810
100
DictionaryVariables
280
     0
  1
2
  0
DICTIONARYVAR
  5
814
102
{ACAD_REACTORS
330
810
102
}
330
810
100
DictionaryVariables
280
     0
  1
1
  0
DICTIONARY
  5
837
330
3D
100
AcDbDictionary
280
     1
281
     1
  3
ACAD_XREC_ROUNDTRIP
360
838
  0
DICTIONARY
  5
835
330
3C
100
AcDbDictionary
280
     1
281
     1
  3
ACAD_XREC_ROUNDTRIP
360
836
  0
DICTIONARY
  5
839
330
3E
100
AcDbDictionary
280
     1
281
     1
  3
ACAD_XREC_ROUNDTRIP
360
83A
  0
DICTIONARY
  5
81D
330
2F
100
AcDbDictionary
280
     1
281
     1
  3
ACAD_XREC_ROUNDTRIP
360
81E
  0
DICTIONARY
  5
821
330
31
100
AcDbDictionary
280
     1
281
     1
  3
ACAD_XREC_ROUNDTRIP
360
822
  0
DICTIONARY
  5
81F
330
30
100
AcDbDictionary
280
     1
281
     1
  3
ACAD_XREC_ROUNDTRIP
360
820
  0
DICTIONARY
  5
823
330
32
100
AcDbDictionary
280
     1
281
     1
  3
ACAD_XREC_ROUNDTRIP
360
824
  0
DICTIONARY
  5
82B
330
36
100
AcDbDictionary
280
     1
281
     1
  3
ACAD_XREC_ROUNDTRIP
360
82C
  0
DICTIONARY
  5
833
330
3A
100
AcDbDictionary
280
     1
281
     1
  3
ACAD_XREC_ROUNDTRIP
360
834
  0
DICTIONARY
  5
827
330
34
100
AcDbDictionary
280
     1
281
     1
  3
ACAD_XREC_ROUNDTRIP
360
828
  0
DICTIONARY
  5
829
330
35
100
AcDbDictionary
280
     1
281
     1
  3
ACAD_XREC_ROUNDTRIP
360
82A
  0
DICTIONARY
  5
831
330
39
100
AcDbDictionary
280
     1
281
     1
  3
ACAD_XREC_ROUNDTRIP
360
832
  0
DICTIONARY
  5
815
330
2B
100
AcDbDictionary
280
     1
281
     1
  3
ACAD_XREC_ROUNDTRIP
360
816
  0
DICTIONARY
  5
817
330
2C
100
AcDbDictionary
280
     1
281
     1
  3
ACAD_XREC_ROUNDTRIP
360
818
  0
DICTIONARY
  5
819
330
2D
100
AcDbDictionary
280
     1
281
     1
  3
ACAD_XREC_ROUNDTRIP
360
81A
  0
DICTIONARY
  5
81B
330
2E
100
AcDbDictionary
280
     1
281
     1
  3
ACAD_XREC_ROUNDTRIP
360
81C
  0
DICTIONARY
  5
82F
330
38
100
AcDbDictionary
280
     1
281
     1
  3
ACAD_XREC_ROUNDTRIP
360
830
  0
DICTIONARY
  5
825
330
33
100
AcDbDictionary
280
     1
281
     1
  3
ACAD_XREC_ROUNDTRIP
360
826
  0
DICTIONARY
  5
82D
330
37
100
AcDbDictionary
280
     1
281
     1
  3
ACAD_XREC_ROUNDTRIP
360
82E
  0
XRECORD
  5
838
102
{ACAD_REACTORS
330
837
102
}
330
837
100
AcDbXrecord
280
     1
102
MATERIAL
148
0.0
149
0.0
149
0.0
 93
        0
 94
      127
282
     0
 72
     1
 77
     1
171
     1
175
     1
179
     1
273
     0
  0
XRECORD
  5
836
102
{ACAD_REACTORS
330
835
102
}
330
835
100
AcDbXrecord
280
     1
102
MATERIAL
148
0.0
149
0.0
149
0.0
 93
        0
 94
      127
282
     0
 72
     1
 77
     1
171
     1
175
     1
179
     1
273
     0
  0
XRECORD
  5
83A
102
{ACAD_REACTORS
330
839
102
}
330
839
100
AcDbXrecord
280
     1
102
MATERIAL
148
0.0
149
0.0
149
0.0
 93
        0
 94
      127
282
     0
 72
     1
 77
     1
171
     1
175
     1
179
     1
273
     0
  0
XRECORD
  5
81E
102
{ACAD_REACTORS
330
81D
102
}
330
81D
100
AcDbXrecord
280
     1
102
RTVSPropertyOp0
 70
     1
102
RTVSPropertyOp1
 70
     1
102
RTVSPropertyOp2
 70
     1
102
RTVSPropertyOp3
 70
     1
102
RTVSPropertyOp4
 70
     1
102
RTVSPropertyOp5
 70
     1
102
RTVSPropertyOp6
 70
     1
102
RTVSPropertyOp7
 70
     1
102
RTVSPropertyOp8
 70
     1
102
RTVSPropertyOp9
 70
     1
102
RTVSPropertyOp10
 70
     1
102
RTVSPropertyOp11
 70
     1
102
RTVSPropertyOp12
 70
     1
102
RTVSPropertyOp13
 70
     1
102
RTVSPropertyOp14
 70
     1
102
RTVSPropertyOp15
 70
     1
102
RTVSPropertyOp16
 70
     1
102
RTVSPropertyOp17
 70
     1
102
RTVSPropertyOp18
 70
     1
102
RTVSPropertyOp19
 70
     1
102
RTVSPropertyOp20
 70
     1
102
RTVSPropertyOp21
 70
     1
102
RTVSPropertyOp22
 70
     1
102
RTVSPropertyOp23
 70
     1
102
RTVSPropertyOp24
 70
     1
102
RTVSPropertyOp25
 70
     1
102
RTVSPropertyOp26
 70
     1
102
RTVSPropertyOp27
 70
     1
102
RTVSPropertyOp28
 70
     1
102
RTVSPropertyOp29
 70
     1
102
RTVSPropertyOp30
 70
     1
102
RTVSPropertyOp31
 70
     1
102
RTVSPropertyOp32
 70
     1
  0
XRECORD
  5
822
102
{ACAD_REACTORS
330
821
102
}
330
821
100
AcDbXrecord
280
     1
102
RTVSPropertyOp0
 70
     1
102
RTVSPropertyOp1
 70
     1
102
RTVSPropertyOp2
 70
     1
102
RTVSPropertyOp3
 70
     1
102
RTVSPropertyOp4
 70
     1
102
RTVSPropertyOp5
 70
     1
102
RTVSPropertyOp6
 70
     1
102
RTVSPropertyOp7
 70
     1
102
RTVSPropertyOp8
 70
     1
102
RTVSPropertyOp9
 70
     1
102
RTVSPropertyOp10
 70
     1
102
RTVSPropertyOp11
 70
     1
102
RTVSPropertyOp12
 70
     1
102
RTVSPropertyOp13
 70
     1
102
RTVSPropertyOp14
 70
     1
102
RTVSPropertyOp15
 70
     1
102
RTVSPropertyOp16
 70
     1
102
RTVSPropertyOp17
 70
     1
102
RTVSPropertyOp18
 70
     1
102
RTVSPropertyOp19
 70
     1
102
RTVSPropertyOp20
 70
     1
102
RTVSPropertyOp21
 70
     1
102
RTVSPropertyOp22
 70
     1
102
RTVSPropertyOp23
 70
     1
102
RTVSPropertyOp24
 70
     1
102
RTVSPropertyOp25
 70
     1
102
RTVSPropertyOp26
 70
     1
102
RTVSPropertyOp27
 70
     1
102
RTVSPropertyOp28
 70
     1
102
RTVSPropertyOp29
 70
     1
102
RTVSPropertyOp30
 70
     1
102
RTVSPropertyOp31
 70
     1
102
RTVSPropertyOp32
 70
     1
  0
XRECORD
  5
820
102
{ACAD_REACTORS
330
81F
102
}
330
81F
100
AcDbXrecord
280
     1
102
RTVSPropertyOp0
 70
     1
102
RTVSPropertyOp1
 70
     1
102
RTVSPropertyOp2
 70
     1
102
RTVSPropertyOp3
 70
     1
102
RTVSPropertyOp4
 70
     1
102
RTVSPropertyOp5
 70
     1
102
RTVSPropertyOp6
 70
     1
102
RTVSPropertyOp7
 70
     1
102
RTVSPropertyOp8
 70
     1
102
RTVSPropertyOp9
 70
     1
102
RTVSPropertyOp10
 70
     1
102
RTVSPropertyOp11
 70
     1
102
RTVSPropertyOp12
 70
     1
102
RTVSPropertyOp13
 70
     1
102
RTVSPropertyOp14
 70
     1
102
RTVSPropertyOp15
 70
     1
102
RTVSPropertyOp16
 70
     1
102
RTVSPropertyOp17
 70
     1
102
RTVSPropertyOp18
 70
     1
102
RTVSPropertyOp19
 70
     1
102
RTVSPropertyOp20
 70
     1
102
RTVSPropertyOp21
 70
     1
102
RTVSPropertyOp22
 70
     1
102
RTVSPropertyOp23
 70
     1
102
RTVSPropertyOp24
 70
     1
102
RTVSPropertyOp25
 70
     1
102
RTVSPropertyOp26
 70
     1
102
RTVSPropertyOp27
 70
     1
102
RTVSPropertyOp28
 70
     1
102
RTVSPropertyOp29
 70
     1
102
RTVSPropertyOp30
 70
     1
102
RTVSPropertyOp31
 70
     1
102
RTVSPropertyOp32
 70
     1
  0
XRECORD
  5
824
102
{ACAD_REACTORS
330
823
102
}
330
823
100
AcDbXrecord
280
     1
102
RTVSPropertyOp0
 70
     1
102
RTVSPropertyOp1
 70
     1
102
RTVSPropertyOp2
 70
     1
102
RTVSPropertyOp3
 70
     1
102
RTVSPropertyOp4
 70
     1
102
RTVSPropertyOp5
 70
     1
102
RTVSPropertyOp6
 70
     1
102
RTVSPropertyOp7
 70
     1
102
RTVSPropertyOp8
 70
     1
102
RTVSPropertyOp9
 70
     1
102
RTVSPropertyOp10
 70
     1
102
RTVSPropertyOp11
 70
     1
102
RTVSPropertyOp12
 70
     1
102
RTVSPropertyOp13
 70
     1
102
RTVSPropertyOp14
 70
     1
102
RTVSPropertyOp15
 70
     1
102
RTVSPropertyOp16
 70
     1
102
RTVSPropertyOp17
 70
     1
102
RTVSPropertyOp18
 70
     1
102
RTVSPropertyOp19
 70
     1
102
RTVSPropertyOp20
 70
     1
102
RTVSPropertyOp21
 70
     1
102
RTVSPropertyOp22
 70
     1
102
RTVSPropertyOp23
 70
     1
102
RTVSPropertyOp24
 70
     1
102
RTVSPropertyOp25
 70
     1
102
RTVSPropertyOp26
 70
     1
102
RTVSPropertyOp27
 70
     1
102
RTVSPropertyOp28
 70
     1
102
RTVSPropertyOp29
 70
     1
102
RTVSPropertyOp30
 70
     1
102
RTVSPropertyOp31
 70
     1
102
RTVSPropertyOp32
 70
     1
  0
XRECORD
  5
82C
102
{ACAD_REACTORS
330
82B
102
}
330
82B
100
AcDbXrecord
280
     1
102
RTVSPropertyOp0
 70
     1
102
RTVSPropertyOp1
 70
     1
102
RTVSPropertyOp2
 70
     1
102
RTVSPropertyOp3
 70
     1
102
RTVSPropertyOp4
 70
     1
102
RTVSPropertyOp5
 70
     1
102
RTVSPropertyOp6
 70
     1
102
RTVSPropertyOp7
 70
     1
102
RTVSPropertyOp8
 70
     1
102
RTVSPropertyOp9
 70
     1
102
RTVSPropertyOp10
 70
     1
102
RTVSPropertyOp11
 70
     1
102
RTVSPropertyOp12
 70
     1
102
RTVSPropertyOp13
 70
     1
102
RTVSPropertyOp14
 70
     1
102
RTVSPropertyOp15
 70
     1
102
RTVSPropertyOp16
 70
     1
102
RTVSPropertyOp17
 70
     1
102
RTVSPropertyOp18
 70
     1
102
RTVSPropertyOp19
 70
     1
102
RTVSPropertyOp20
 70
     1
102
RTVSPropertyOp21
 70
     1
102
RTVSPropertyOp22
 70
     1
102
RTVSPropertyOp23
 70
     1
102
RTVSPropertyOp24
 70
     1
102
RTVSPropertyOp25
 70
     1
102
RTVSPropertyOp26
 70
     1
102
RTVSPropertyOp27
 70
     1
102
RTVSPropertyOp28
 70
     1
102
RTVSPropertyOp29
 70
     1
102
RTVSPropertyOp30
 70
     1
102
RTVSPropertyOp31
 70
     1
102
RTVSPropertyOp32
 70
     1
  0
XRECORD
  5
834
102
{ACAD_REACTORS
330
833
102
}
330
833
100
AcDbXrecord
280
     1
102
RTVSPropertyOp0
 70
     1
102
RTVSPropertyOp1
 70
     1
102
RTVSPropertyOp2
 70
     1
102
RTVSPropertyOp3
 70
     1
102
RTVSPropertyOp4
 70
     1
102
RTVSPropertyOp5
 70
     1
102
RTVSPropertyOp6
 70
     1
102
RTVSPropertyOp7
 70
     1
102
RTVSPropertyOp8
 70
     1
102
RTVSPropertyOp9
 70
     1
102
RTVSPropertyOp10
 70
     1
102
RTVSPropertyOp11
 70
     1
102
RTVSPropertyOp12
 70
     1
102
RTVSPropertyOp13
 70
     1
102
RTVSPropertyOp14
 70
     1
102
RTVSPropertyOp15
 70
     1
102
RTVSPropertyOp16
 70
     1
102
RTVSPropertyOp17
 70
     1
102
RTVSPropertyOp18
 70
     1
102
RTVSPropertyOp19
 70
     1
102
RTVSPropertyOp20
 70
     1
102
RTVSPropertyOp21
 70
     1
102
RTVSPropertyOp22
 70
     1
102
RTVSPropertyOp23
 70
     1
102
RTVSPropertyOp24
 70
     1
102
RTVSPropertyOp25
 70
     1
102
RTVSPropertyOp26
 70
     1
102
RTVSPropertyOp27
 70
     1
102
RTVSPropertyOp28
 70
     1
102
RTVSPropertyOp29
 70
     1
102
RTVSPropertyOp30
 70
     1
102
RTVSPropertyOp31
 70
     1
102
RTVSPropertyOp32
 70
     1
  0
XRECORD
  5
828
102
{ACAD_REACTORS
330
827
102
}
330
827
100
AcDbXrecord
280
     1
102
RTVSPropertyOp0
 70
     1
102
RTVSPropertyOp1
 70
     1
102
RTVSPropertyOp2
 70
     1
102
RTVSPropertyOp3
 70
     1
102
RTVSPropertyOp4
 70
     1
102
RTVSPropertyOp5
 70
     1
102
RTVSPropertyOp6
 70
     1
102
RTVSPropertyOp7
 70
     1
102
RTVSPropertyOp8
 70
     1
102
RTVSPropertyOp9
 70
     1
102
RTVSPropertyOp10
 70
     1
102
RTVSPropertyOp11
 70
     1
102
RTVSPropertyOp12
 70
     1
102
RTVSPropertyOp13
 70
     1
102
RTVSPropertyOp14
 70
     1
102
RTVSPropertyOp15
 70
     1
102
RTVSPropertyOp16
 70
     1
102
RTVSPropertyOp17
 70
     1
102
RTVSPropertyOp18
 70
     1
102
RTVSPropertyOp19
 70
     1
102
RTVSPropertyOp20
 70
     1
102
RTVSPropertyOp21
 70
     1
102
RTVSPropertyOp22
 70
     1
102
RTVSPropertyOp23
 70
     1
102
RTVSPropertyOp24
 70
     1
102
RTVSPropertyOp25
 70
     1
102
RTVSPropertyOp26
 70
     1
102
RTVSPropertyOp27
 70
     1
102
RTVSPropertyOp28
 70
     1
102
RTVSPropertyOp29
 70
     1
102
RTVSPropertyOp30
 70
     1
102
RTVSPropertyOp31
 70
     1
102
RTVSPropertyOp32
 70
     1
  0
XRECORD
  5
82A
102
{ACAD_REACTORS
330
829
102
}
330
829
100
AcDbXrecord
280
     1
102
RTVSPropertyOp0
 70
     1
102
RTVSPropertyOp1
 70
     1
102
RTVSPropertyOp2
 70
     1
102
RTVSPropertyOp3
 70
     1
102
RTVSPropertyOp4
 70
     1
102
RTVSPropertyOp5
 70
     1
102
RTVSPropertyOp6
 70
     1
102
RTVSPropertyOp7
 70
     1
102
RTVSPropertyOp8
 70
     1
102
RTVSPropertyOp9
 70
     1
102
RTVSPropertyOp10
 70
     1
102
RTVSPropertyOp11
 70
     1
102
RTVSPropertyOp12
 70
     1
102
RTVSPropertyOp13
 70
     1
102
RTVSPropertyOp14
 70
     1
102
RTVSPropertyOp15
 70
     1
102
RTVSPropertyOp16
 70
     1
102
RTVSPropertyOp17
 70
     1
102
RTVSPropertyOp18
 70
     1
102
RTVSPropertyOp19
 70
     1
102
RTVSPropertyOp20
 70
     1
102
RTVSPropertyOp21
 70
     1
102
RTVSPropertyOp22
 70
     1
102
RTVSPropertyOp23
 70
     1
102
RTVSPropertyOp24
 70
     1
102
RTVSPropertyOp25
 70
     1
102
RTVSPropertyOp26
 70
     1
102
RTVSPropertyOp27
 70
     1
102
RTVSPropertyOp28
 70
     1
102
RTVSPropertyOp29
 70
     1
102
RTVSPropertyOp30
 70
     1
102
RTVSPropertyOp31
 70
     1
102
RTVSPropertyOp32
 70
     1
  0
XRECORD
  5
832
102
{ACAD_REACTORS
330
831
102
}
330
831
100
AcDbXrecord
280
     1
102
RTVSPropertyOp0
 70
     1
102
RTVSPropertyOp1
 70
     1
102
RTVSPropertyOp2
 70
     1
102
RTVSPropertyOp3
 70
     1
102
RTVSPropertyOp4
 70
     1
102
RTVSPropertyOp5
 70
     1
102
RTVSPropertyOp6
 70
     1
102
RTVSPropertyOp7
 70
     1
102
RTVSPropertyOp8
 70
     1
102
RTVSPropertyOp9
 70
     1
102
RTVSPropertyOp10
 70
     1
102
RTVSPropertyOp11
 70
     1
102
RTVSPropertyOp12
 70
     1
102
RTVSPropertyOp13
 70
     1
102
RTVSPropertyOp14
 70
     1
102
RTVSPropertyOp15
 70
     1
102
RTVSPropertyOp16
 70
     1
102
RTVSPropertyOp17
 70
     1
102
RTVSPropertyOp18
 70
     1
102
RTVSPropertyOp19
 70
     1
102
RTVSPropertyOp20
 70
     1
102
RTVSPropertyOp21
 70
     1
102
RTVSPropertyOp22
 70
     1
102
RTVSPropertyOp23
 70
     1
102
RTVSPropertyOp24
 70
     1
102
RTVSPropertyOp25
 70
     1
102
RTVSPropertyOp26
 70
     1
102
RTVSPropertyOp27
 70
     1
102
RTVSPropertyOp28
 70
     1
102
RTVSPropertyOp29
 70
     1
102
RTVSPropertyOp30
 70
     1
102
RTVSPropertyOp31
 70
     1
102
RTVSPropertyOp32
 70
     1
  0
XRECORD
  5
816
102
{ACAD_REACTORS
330
815
102
}
330
815
100
AcDbXrecord
280
     1
102
RTVSPropertyOp0
 70
     1
102
RTVSPropertyOp1
 70
     1
102
RTVSPropertyOp2
 70
     1
102
RTVSPropertyOp3
 70
     1
102
RTVSPropertyOp4
 70
     1
102
RTVSPropertyOp5
 70
     1
102
RTVSPropertyOp6
 70
     1
102
RTVSPropertyOp7
 70
     1
102
RTVSPropertyOp8
 70
     1
102
RTVSPropertyOp9
 70
     1
102
RTVSPropertyOp10
 70
     1
102
RTVSPropertyOp11
 70
     1
102
RTVSPropertyOp12
 70
     1
102
RTVSPropertyOp13
 70
     1
102
RTVSPropertyOp14
 70
     1
102
RTVSPropertyOp15
 70
     1
102
RTVSPropertyOp16
 70
     1
102
RTVSPropertyOp17
 70
     1
102
RTVSPropertyOp18
 70
     1
102
RTVSPropertyOp19
 70
     1
102
RTVSPropertyOp20
 70
     1
102
RTVSPropertyOp21
 70
     1
102
RTVSPropertyOp22
 70
     1
102
RTVSPropertyOp23
 70
     1
102
RTVSPropertyOp24
 70
     1
102
RTVSPropertyOp25
 70
     1
102
RTVSPropertyOp26
 70
     1
102
RTVSPropertyOp27
 70
     1
102
RTVSPropertyOp28
 70
     1
102
RTVSPropertyOp29
 70
     1
102
RTVSPropertyOp30
 70
     1
102
RTVSPropertyOp31
 70
     1
102
RTVSPropertyOp32
 70
     1
  0
XRECORD
  5
818
102
{ACAD_REACTORS
330
817
102
}
330
817
100
AcDbXrecord
280
     1
102
RTVSPropertyOp0
 70
     1
102
RTVSPropertyOp1
 70
     1
102
RTVSPropertyOp2
 70
     1
102
RTVSPropertyOp3
 70
     1
102
RTVSPropertyOp4
 70
     1
102
RTVSPropertyOp5
 70
     1
102
RTVSPropertyOp6
 70
     1
102
RTVSPropertyOp7
 70
     1
102
RTVSPropertyOp8
 70
     1
102
RTVSPropertyOp9
 70
     1
102
RTVSPropertyOp10
 70
     1
102
RTVSPropertyOp11
 70
     1
102
RTVSPropertyOp12
 70
     1
102
RTVSPropertyOp13
 70
     1
102
RTVSPropertyOp14
 70
     1
102
RTVSPropertyOp15
 70
     1
102
RTVSPropertyOp16
 70
     1
102
RTVSPropertyOp17
 70
     1
102
RTVSPropertyOp18
 70
     1
102
RTVSPropertyOp19
 70
     1
102
RTVSPropertyOp20
 70
     1
102
RTVSPropertyOp21
 70
     1
102
RTVSPropertyOp22
 70
     1
102
RTVSPropertyOp23
 70
     1
102
RTVSPropertyOp24
 70
     1
102
RTVSPropertyOp25
 70
     1
102
RTVSPropertyOp26
 70
     1
102
RTVSPropertyOp27
 70
     1
102
RTVSPropertyOp28
 70
     1
102
RTVSPropertyOp29
 70
     1
102
RTVSPropertyOp30
 70
     1
102
RTVSPropertyOp31
 70
     1
102
RTVSPropertyOp32
 70
     1
  0
XRECORD
  5
81A
102
{ACAD_REACTORS
330
819
102
}
330
819
100
AcDbXrecord
280
     1
102
RTVSPropertyOp0
 70
     1
102
RTVSPropertyOp1
 70
     1
102
RTVSPropertyOp2
 70
     1
102
RTVSPropertyOp3
 70
     1
102
RTVSPropertyOp4
 70
     1
102
RTVSPropertyOp5
 70
     1
102
RTVSPropertyOp6
 70
     1
102
RTVSPropertyOp7
 70
     1
102
RTVSPropertyOp8
 70
     1
102
RTVSPropertyOp9
 70
     1
102
RTVSPropertyOp10
 70
     1
102
RTVSPropertyOp11
 70
     1
102
RTVSPropertyOp12
 70
     1
102
RTVSPropertyOp13
 70
     1
102
RTVSPropertyOp14
 70
     1
102
RTVSPropertyOp15
 70
     1
102
RTVSPropertyOp16
 70
     1
102
RTVSPropertyOp17
 70
     1
102
RTVSPropertyOp18
 70
     1
102
RTVSPropertyOp19
 70
     1
102
RTVSPropertyOp20
 70
     1
102
RTVSPropertyOp21
 70
     1
102
RTVSPropertyOp22
 70
     1
102
RTVSPropertyOp23
 70
     1
102
RTVSPropertyOp24
 70
     1
102
RTVSPropertyOp25
 70
     1
102
RTVSPropertyOp26
 70
     1
102
RTVSPropertyOp27
 70
     1
102
RTVSPropertyOp28
 70
     1
102
RTVSPropertyOp29
 70
     1
102
RTVSPropertyOp30
 70
     1
102
RTVSPropertyOp31
 70
     1
102
RTVSPropertyOp32
 70
     1
  0
XRECORD
  5
81C
102
{ACAD_REACTORS
330
81B
102
}
330
81B
100
AcDbXrecord
280
     1
102
RTVSPropertyOp0
 70
     1
102
RTVSPropertyOp1
 70
     1
102
RTVSPropertyOp2
 70
     1
102
RTVSPropertyOp3
 70
     1
102
RTVSPropertyOp4
 70
     1
102
RTVSPropertyOp5
 70
     1
102
RTVSPropertyOp6
 70
     1
102
RTVSPropertyOp7
 70
     1
102
RTVSPropertyOp8
 70
     1
102
RTVSPropertyOp9
 70
     1
102
RTVSPropertyOp10
 70
     1
102
RTVSPropertyOp11
 70
     1
102
RTVSPropertyOp12
 70
     1
102
RTVSPropertyOp13
 70
     1
102
RTVSPropertyOp14
 70
     1
102
RTVSPropertyOp15
 70
     1
102
RTVSPropertyOp16
 70
     1
102
RTVSPropertyOp17
 70
     1
102
RTVSPropertyOp18
 70
     1
102
RTVSPropertyOp19
 70
     1
102
RTVSPropertyOp20
 70
     1
102
RTVSPropertyOp21
 70
     1
102
RTVSPropertyOp22
 70
     1
102
RTVSPropertyOp23
 70
     1
102
RTVSPropertyOp24
 70
     1
102
RTVSPropertyOp25
 70
     1
102
RTVSPropertyOp26
 70
     1
102
RTVSPropertyOp27
 70
     1
102
RTVSPropertyOp28
 70
     1
102
RTVSPropertyOp29
 70
     1
102
RTVSPropertyOp30
 70
     1
102
RTVSPropertyOp31
 70
     1
102
RTVSPropertyOp32
 70
     1
  0
XRECORD
  5
830
102
{ACAD_REACTORS
330
82F
102
}
330
82F
100
AcDbXrecord
280
     1
102
RTVSPropertyOp0
 70
     1
102
RTVSPropertyOp1
 70
     1
102
RTVSPropertyOp2
 70
     1
102
RTVSPropertyOp3
 70
     1
102
RTVSPropertyOp4
 70
     1
102
RTVSPropertyOp5
 70
     1
102
RTVSPropertyOp6
 70
     1
102
RTVSPropertyOp7
 70
     1
102
RTVSPropertyOp8
 70
     1
102
RTVSPropertyOp9
 70
     1
102
RTVSPropertyOp10
 70
     1
102
RTVSPropertyOp11
 70
     1
102
RTVSPropertyOp12
 70
     1
102
RTVSPropertyOp13
 70
     1
102
RTVSPropertyOp14
 70
     1
102
RTVSPropertyOp15
 70
     1
102
RTVSPropertyOp16
 70
     1
102
RTVSPropertyOp17
 70
     1
102
RTVSPropertyOp18
 70
     1
102
RTVSPropertyOp19
 70
     1
102
RTVSPropertyOp20
 70
     1
102
RTVSPropertyOp21
 70
     1
102
RTVSPropertyOp22
 70
     1
102
RTVSPropertyOp23
 70
     1
102
RTVSPropertyOp24
 70
     1
102
RTVSPropertyOp25
 70
     1
102
RTVSPropertyOp26
 70
     1
102
RTVSPropertyOp27
 70
     1
102
RTVSPropertyOp28
 70
     1
102
RTVSPropertyOp29
 70
     1
102
RTVSPropertyOp30
 70
     1
102
RTVSPropertyOp31
 70
     1
102
RTVSPropertyOp32
 70
     1
  0
XRECORD
  5
826
102
{ACAD_REACTORS
330
825
102
}
330
825
100
AcDbXrecord
280
     1
102
RTVSPropertyOp0
 70
     1
102
RTVSPropertyOp1
 70
     1
102
RTVSPropertyOp2
 70
     1
102
RTVSPropertyOp3
 70
     1
102
RTVSPropertyOp4
 70
     1
102
RTVSPropertyOp5
 70
     1
102
RTVSPropertyOp6
 70
     1
102
RTVSPropertyOp7
 70
     1
102
RTVSPropertyOp8
 70
     1
102
RTVSPropertyOp9
 70
     1
102
RTVSPropertyOp10
 70
     1
102
RTVSPropertyOp11
 70
     1
102
RTVSPropertyOp12
 70
     1
102
RTVSPropertyOp13
 70
     1
102
RTVSPropertyOp14
 70
     1
102
RTVSPropertyOp15
 70
     1
102
RTVSPropertyOp16
 70
     1
102
RTVSPropertyOp17
 70
     1
102
RTVSPropertyOp18
 70
     1
102
RTVSPropertyOp19
 70
     1
102
RTVSPropertyOp20
 70
     1
102
RTVSPropertyOp21
 70
     1
102
RTVSPropertyOp22
 70
     1
102
RTVSPropertyOp23
 70
     1
102
RTVSPropertyOp24
 70
     1
102
RTVSPropertyOp25
 70
     1
102
RTVSPropertyOp26
 70
     1
102
RTVSPropertyOp27
 70
     1
102
RTVSPropertyOp28
 70
     1
102
RTVSPropertyOp29
 70
     1
102
RTVSPropertyOp30
 70
     1
102
RTVSPropertyOp31
 70
     1
102
RTVSPropertyOp32
 70
     1
  0
XRECORD
  5
82E
102
{ACAD_REACTORS
330
82D
102
}
330
82D
100
AcDbXrecord
280
     1
102
RTVSPropertyOp0
 70
     1
102
RTVSPropertyOp1
 70
     1
102
RTVSPropertyOp2
 70
     1
102
RTVSPropertyOp3
 70
     1
102
RTVSPropertyOp4
 70
     1
102
RTVSPropertyOp5
 70
     1
102
RTVSPropertyOp6
 70
     1
102
RTVSPropertyOp7
 70
     1
102
RTVSPropertyOp8
 70
     1
102
RTVSPropertyOp9
 70
     1
102
RTVSPropertyOp10
 70
     1
102
RTVSPropertyOp11
 70
     1
102
RTVSPropertyOp12
 70
     1
102
RTVSPropertyOp13
 70
     1
102
RTVSPropertyOp14
 70
     1
102
RTVSPropertyOp15
 70
     1
102
RTVSPropertyOp16
 70
     1
102
RTVSPropertyOp17
 70
     1
102
RTVSPropertyOp18
 70
     1
102
RTVSPropertyOp19
 70
     1
102
RTVSPropertyOp20
 70
     1
102
RTVSPropertyOp21
 70
     1
102
RTVSPropertyOp22
 70
     1
102
RTVSPropertyOp23
 70
     1
102
RTVSPropertyOp24
 70
     1
102
RTVSPropertyOp25
 70
     1
102
RTVSPropertyOp26
 70
     1
102
RTVSPropertyOp27
 70
     1
102
RTVSPropertyOp28
 70
     1
102
RTVSPropertyOp29
 70
     1
102
RTVSPropertyOp30
 70
     1
102
RTVSPropertyOp31
 70
     1
102
RTVSPropertyOp32
 70
     1
  0
ENDSEC
  0
EOF
